xXx Return of Xander Cage (2017) (2160p BluRay x265 HEVC 10bit AAC 7 1 Joy) [UTR] torrent download

seeders: 353
leechers: 119
updated:
Added ago by UTRCorp ***** in TV
Torrent Downloaded 10 times.
Info Hash: E8F4C820E63ED9ED6AEF1C2CEB1224330CEF4C88


Torrent Files

xXx Return of Xander Cage (2017) (2160p BluRay x265 HEVC 10bit AAC 7 1 Joy) [UTR] (Size: 5.5 GB)
  xXx Return of Xander Cage (2017) (2160p BluRay x265 HEVC 10bit AAC 7 1 Joy) [UTR] 5.5 GB

Torrent Description










Media Information

Media Information

Code:

General
Format : Matroska
Format version : Version 4 / Version 2
File size : 5.21 GiB
Duration : 1 h 46 min
Overall bit rate : 6 987 kb/s
Movie name : xXx Return of Xander Cage 2017 (2160p x265 10bit S84 Joy)[UTR]
Encoded date : UTC 2018-06-12 00:39:54
Writing application : mkvmerge v21.0.0 ('Tardigrades Will Inherit The Earth') 64-bit
Writing library : libebml v1.3.5 + libmatroska v1.4.8
Cover : Yes
Attachments : cover.jpg
Writing frontend : StaxRip v1.7.0.6

Video
ID : 1
Format : HEVC
Format/Info : High Efficiency Video Coding
Format profile : Main [email protected]@Main
Codec ID : V_MPEGH/ISO/HEVC
Duration : 1 h 46 min
Bit rate : 5 996 kb/s
Width : 3 840 pixels
Height : 1 600 pixels
Display aspect ratio : 2.40:1
Frame rate mode : Constant
Frame rate : 23.976 (24000/1001) FPS
Color space : YUV
Chroma subsampling : 4:2:0
Bit depth : 10 bits
Bits/(Pixel*Frame) : 0.041
Stream size : 4.47 GiB (86%)
Writing library : x265 2.7+2-22c127ff05d5:[Windows][MSVC 1900][64 bit] 10bit
Encoding settings : cpuid=1173503 / frame-threads=4 / numa-pools=16 / wpp / no-pmode / no-pme / no-psnr / ssim / log-level=2 / input-csp=1 / input-res=3840x1600 / interlace=0 / total-frames=153578 / level-idc=0 / high-tier=1 / uhd-bd=0 / ref=3 / no-allow-non-conformance / no-repeat-headers / annexb / no-aud / no-hrd / info / hash=0 / no-temporal-layers / open-gop / min-keyint=23 / keyint=250 / gop-lookahead=0 / bframes=4 / b-adapt=2 / b-pyramid / bframe-bias=0 / rc-lookahead=50 / lookahead-slices=8 / scenecut=40 / radl=0 / no-intra-refresh / ctu=64 / min-cu-size=8 / no-rect / no-amp / max-tu-size=32 / tu-inter-depth=1 / tu-intra-depth=1 / limit-tu=0 / rdoq-level=1 / dynamic-rd=0.00 / ssim-rd / signhide / no-tskip / nr-intra=0 / nr-inter=0 / no-constrained-intra / strong-intra-smoothing / max-merge=2 / limit-refs=3 / no-limit-modes / me=1 / subme=2 / merange=57 / temporal-mvp / weightp / weightb / no-analyze-src-pics / deblock=0:0 / sao / no-sao-non-deblock / rd=3 / no-early-skip / rskip / no-fast-intra / no-tskip-fast / no-cu-lossless / b-intra / no-splitrd-skip / rdpenalty=0 / psy-rd=0.00 / psy-rdoq=0.00 / no-rd-refine / no-lossless / cbqpoffs=0 / crqpoffs=0 / rc=abr / bitrate=6000 / qcomp=0.60 / qpstep=4 / stats-write=0 / stats-read=2 / cplxblur=20.0 / qblur=0.5 / ipratio=1.40 / pbratio=1.30 / aq-mode=2 / aq-strength=1.00 / cutree / zone-count=0 / no-strict-cbr / qg-size=32 / no-rc-grain / qpmax=69 / qpmin=0 / no-const-vbv / sar=0 / overscan=0 / videoformat=5 / range=0 / colorprim=2 / transfer=2 / colormatrix=2 / chromaloc=0 / display-window=0 / max-cll=0,0 / min-luma=0 / max-luma=1023 / log2-max-poc-lsb=8 / vui-timing-info / vui-hrd-info / slices=1 / no-opt-qp-pps / no-opt-ref-list-length-pps / multi-pass-opt-rps / scenecut-bias=0.05 / no-opt-cu-delta-qp / no-aq-motion / no-hdr / no-hdr-opt / no-dhdr10-opt / analysis-reuse-level=5 / scale-factor=0 / refine-intra=0 / refine-inter=0 / refine-mv=0 / limit-sao / ctu-info=0 / no-lowpass-dct / refine-mv-type=0 / copy-pic=1
Default : Yes
Forced : No

Audio #1
ID : 2
Format : AAC
Format/Info : Advanced Audio Codec
Format profile : LC
Codec ID : A_AAC
Duration : 1 h 46 min
Bit rate : 645 kb/s
Channel(s) : 7 channels
Channel(s)_Original : 8 channels
Channel positions : Front: L C R, Side: L R, Back: L R, LFE
Sampling rate : 48.0 kHz
Frame rate : 46.875 FPS (1024 spf)
Compression mode : Lossy
Delay relative to video : 9 ms
Stream size : 493 MiB (9%)
Language : English
Default : Yes
Forced : No

Audio #2
ID : 9
Format : AAC
Format/Info : Advanced Audio Codec
Format profile : HE-AAC / LC
Codec ID : A_AAC
Duration : 1 h 46 min
Bit rate : 85.9 kb/s
Channel(s) : 2 channels
Channel positions : Front: L R
Sampling rate : 48.0 kHz / 24.0 kHz
Frame rate : 23.438 FPS (1024 spf)
Compression mode : Lossy
Delay relative to video : 31 ms
Stream size : 65.6 MiB (1%)
Language : French
Default : No
Forced : No

Audio #3
ID : 10
Format : AAC
Format/Info : Advanced Audio Codec
Format profile : HE-AAC / LC
Codec ID : A_AAC
Duration : 1 h 46 min
Bit rate : 86.0 kb/s
Channel(s) : 2 channels
Channel positions : Front: L R
Sampling rate : 48.0 kHz / 24.0 kHz
Frame rate : 23.438 FPS (1024 spf)
Compression mode : Lossy
Delay relative to video : 31 ms
Stream size : 65.6 MiB (1%)
Language : Spanish
Default : No
Forced : No

Audio #4
ID : 11
Format : AAC
Format/Info : Advanced Audio Codec
Format profile : HE-AAC / LC
Codec ID : A_AAC
Duration : 1 h 46 min
Bit rate : 86.1 kb/s
Channel(s) : 2 channels
Channel positions : Front: L R
Sampling rate : 48.0 kHz / 24.0 kHz
Frame rate : 23.438 FPS (1024 spf)
Compression mode : Lossy
Delay relative to video : 31 ms
Stream size : 65.8 MiB (1%)
Language : Portuguese
Default : No
Forced : No

Audio #5
ID : 12
Format : AAC
Format/Info : Advanced Audio Codec
Format profile : HE-AAC / LC
Codec ID : A_AAC
Duration : 1 h 46 min
Bit rate : 52.3 kb/s
Channel(s) : 2 channels
Channel positions : Front: L R
Sampling rate : 48.0 kHz / 24.0 kHz
Frame rate : 23.438 FPS (1024 spf)
Compression mode : Lossy
Delay relative to video : 31 ms
Stream size : 39.9 MiB (1%)
Title : Commentary
Language : English
Default : No
Forced : No

Subtitle #1
ID : 3
Format : PGS
Muxing mode : zlib
Codec ID : S_HDMV/PGS
Codec ID/Info : Picture based subtitle format used on BDs/HD-DVDs
Duration : 1 h 36 min
Bit rate : 30.7 kb/s
Count of elements : 2259
Stream size : 21.1 MiB (0%)
Language : English
Default : No
Forced : No

Subtitle #2
ID : 4
Format : UTF-8
Codec ID : S_TEXT/UTF8
Codec ID/Info : UTF-8 Plain Text
Duration : 1 h 38 min
Bit rate : 68 b/s
Count of elements : 1353
Stream size : 49.9 KiB (0%)
Language : English
Default : No
Forced : No

Subtitle #3
ID : 5
Format : VobSub
Muxing mode : zlib
Codec ID : S_VOBSUB
Codec ID/Info : Picture based subtitle format used on DVDs
Duration : 1 h 38 min
Bit rate : 10.5 kb/s
Count of elements : 1397
Stream size : 7.44 MiB (0%)
Language : English
Default : No
Forced : No

Subtitle #4
ID : 6
Format : VobSub
Muxing mode : zlib
Codec ID : S_VOBSUB
Codec ID/Info : Picture based subtitle format used on DVDs
Duration : 1 h 36 min
Bit rate : 9 068 b/s
Count of elements : 1169
Stream size : 6.24 MiB (0%)
Language : French
Default : No
Forced : No

Subtitle #5
ID : 7
Format : VobSub
Muxing mode : zlib
Codec ID : S_VOBSUB
Codec ID/Info : Picture based subtitle format used on DVDs
Duration : 1 h 36 min
Bit rate : 8 481 b/s
Count of elements : 997
Stream size : 5.84 MiB (0%)
Language : Spanish
Default : No
Forced : No

Subtitle #6
ID : 8
Format : VobSub
Muxing mode : zlib
Codec ID : S_VOBSUB
Codec ID/Info : Picture based subtitle format used on DVDs
Duration : 1 h 36 min
Bit rate : 7 452 b/s
Count of elements : 1002
Stream size : 5.13 MiB (0%)
Language : Portuguese
Default : No
Forced : No

Subtitle #7
ID : 13
Format : UTF-8
Codec ID : S_TEXT/UTF8
Codec ID/Info : UTF-8 Plain Text
Duration : 1 h 38 min
Bit rate : 75 b/s
Count of elements : 984
Stream size : 54.2 KiB (0%)
Language : Arabic
Default : No
Forced : No

Subtitle #8
ID : 14
Format : UTF-8
Codec ID : S_TEXT/UTF8
Codec ID/Info : UTF-8 Plain Text
Duration : 1 h 42 min
Bit rate : 43 b/s
Count of elements : 848
Stream size : 32.7 KiB (0%)
Language : Danish
Default : No
Forced : No

Subtitle #9
ID : 15
Format : UTF-8
Codec ID : S_TEXT/UTF8
Codec ID/Info : UTF-8 Plain Text
Duration : 1 h 36 min
Bit rate : 47 b/s
Count of elements : 776
Stream size : 33.3 KiB (0%)
Language : Dutch
Default : No
Forced : No

Subtitle #10
ID : 16
Format : UTF-8
Codec ID : S_TEXT/UTF8
Codec ID/Info : UTF-8 Plain Text
Duration : 1 h 36 min
Bit rate : 79 b/s
Count of elements : 1108
Stream size : 56.0 KiB (0%)
Language : Persian
Default : No
Forced : No

Subtitle #11
ID : 17
Format : UTF-8
Codec ID : S_TEXT/UTF8
Codec ID/Info : UTF-8 Plain Text
Duration : 1 h 36 min
Bit rate : 66 b/s
Count of elements : 987
Stream size : 46.7 KiB (0%)
Language : Hebrew
Default : No
Forced : No

Subtitle #12
ID : 18
Format : UTF-8
Codec ID : S_TEXT/UTF8
Codec ID/Info : UTF-8 Plain Text
Duration : 1 h 42 min
Bit rate : 41 b/s
Count of elements : 999
Stream size : 30.9 KiB (0%)
Language : Norwegian
Default : No
Forced : No

Subtitle #13
ID : 19
Format : UTF-8
Codec ID : S_TEXT/UTF8
Codec ID/Info : UTF-8 Plain Text
Duration : 1 h 39 min
Bit rate : 84 b/s
Count of elements : 1004
Stream size : 62.1 KiB (0%)
Language : Thai
Default : No
Forced : No

Subtitle #14
ID : 20
Format : UTF-8
Codec ID : S_TEXT/UTF8
Codec ID/Info : UTF-8 Plain Text
Duration : 1 h 41 min
Bit rate : 57 b/s
Count of elements : 982
Stream size : 43.0 KiB (0%)
Language : Vietnamese
Default : No
Forced : No

Menu
00:00:00.000 : en:Chapter 1
00:07:09.137 : en:Chapter 2
00:12:00.511 : en:Chapter 3
00:22:38.106 : en:Chapter 4
00:27:56.257 : en:Chapter 5
00:38:27.763 : en:Chapter 6
00:46:59.650 : en:Chapter 7
00:52:45.620 : en:Chapter 8
01:02:10.059 : en:Chapter 9
01:11:50.180 : en:Chapter 10
01:18:35.252 : en:Chapter 11
01:28:42.734 : en:Chapter 12
01:37:57.162 : en:Chapter 13



Source Information

Code:

Release:
xXx.Return.of.Xander.Cage.2017.2160p.BluRay.x265.10bit.SDR.DTS-HD.MA.TrueHD.7.1.Atmos-SWTYBLZ.mkv (37.00 GBs)




Related Torrents

torrent name size age seed leech
7.3 GB 5 minutes 25 37
Honey Foxxx
Posted by   Guest  in  Video
2.4 GB 5 minutes 623 462
2.2 MB 5 minutes 227 409
Over the risk
Posted by   Guest  in  Anime
10.6 MB 5 minutes 600 474
332NAMA-012 mp4
Posted by   Guest  in  Video
4.2 GB 5 minutes 632 228

Sharing Widget


Download torrent
5.5 GB
seeders:1214
leechers:386
xXx Return of Xander Cage (2017) (2160p BluRay x265 HEVC 10bit AAC 7 1 Joy) [UTR]



To share this torrent use the code below and insert it into comments, status messages, forum posts or your signature.

Torrent: xXx Return of Xander Cage (2017) (2160p BluRay x265 HEVC 10bit AAC 7 1 Joy) [UTR]

Comments

Latest Searches