Victoria (2016) Season 2 S02 + Extras (1080p BluRay x265 HEVC 10bit AAC 2 0 English+German RCVR) [QxR] torrent download

seeders: 269
leechers: 141
updated:
Added ago by QxR ***** in TV
Torrent Downloaded 10 times.
Info Hash: C6525FA7F715FE469629A8FEFE3B8DA208ABEC3C


Torrent Files

Victoria (2016) Season 2 S02 + Extras (1080p BluRay x265 HEVC 10bit AAC 2 0 English+German RCVR) [QxR] (Size: 10.9 GB)
  Victoria (2016) Season 2 S02 + Extras (1080p BluRay x265 HEVC 10bit AAC 2 0 English+German RCVR) [QxR] 10.9 GB

Torrent Description







Media Information

Code:

General
Format : Matroska
Format version : Version 4 / Version 2
File size : 1.41 GiB
Duration : 49 min 50 s
Overall bit rate : 4 042 kb/s
Movie name : Victoria - Staffel 2 - BD 1
Encoded date : UTC 2018-03-21 02:29:42
Writing application : mkvmerge v12.0.0 ('Trust / Lust') 64bit
Writing library : libebml v1.3.4 + libmatroska v1.4.5
Cover : Yes
Attachments : cover.jpg

Video
ID : 1
Format : HEVC
Format/Info : High Efficiency Video Coding
Format profile : Main [email protected]@Main
Codec ID : V_MPEGH/ISO/HEVC
Duration : 49 min 50 s
Bit rate : 3 813 kb/s
Width : 1 920 pixels
Height : 1 080 pixels
Display aspect ratio : 16:9
Frame rate mode : Constant
Frame rate : 25.000 FPS
Color space : YUV
Chroma subsampling : 4:2:0
Bit depth : 10 bits
Bits/(Pixel*Frame) : 0.074
Stream size : 1.33 GiB (94%)
Writing library : x265 2.7+12-98e48e8dd6ab:[Windows][MSVC 1900][64 bit] 10bit
Encoding settings : cpuid=1173503 / frame-threads=3 / numa-pools=8 / wpp / no-pmode / no-pme / no-psnr / no-ssim / log-level=2 / input-csp=1 / input-res=1920x1080 / interlace=0 / total-frames=74762 / level-idc=0 / high-tier=1 / uhd-bd=0 / ref=5 / no-allow-non-conformance / no-repeat-headers / annexb / no-aud / no-hrd / info / hash=0 / no-temporal-layers / open-gop / min-keyint=25 / keyint=250 / gop-lookahead=0 / bframes=8 / b-adapt=2 / b-pyramid / bframe-bias=0 / rc-lookahead=80 / lookahead-slices=4 / scenecut=40 / radl=0 / no-intra-refresh / ctu=64 / min-cu-size=8 / rect / no-amp / max-tu-size=32 / tu-inter-depth=1 / tu-intra-depth=1 / limit-tu=0 / rdoq-level=2 / dynamic-rd=0.00 / no-ssim-rd / signhide / no-tskip / nr-intra=0 / nr-inter=0 / no-constrained-intra / no-strong-intra-smoothing / max-merge=4 / limit-refs=3 / limit-modes / me=3 / subme=5 / merange=57 / temporal-mvp / weightp / weightb / no-analyze-src-pics / deblock=-3:-3 / no-sao / no-sao-non-deblock / rd=4 / no-early-skip / no-rskip / no-fast-intra / no-tskip-fast / no-cu-lossless / no-b-intra / no-splitrd-skip / rdpenalty=0 / psy-rd=1.40 / psy-rdoq=1.60 / no-rd-refine / no-lossless / cbqpoffs=0 / crqpoffs=0 / rc=crf / crf=20.5 / qcomp=0.60 / qpstep=4 / stats-write=0 / stats-read=0 / ipratio=1.40 / pbratio=1.30 / aq-mode=3 / aq-strength=1.00 / cutree / zone-count=0 / no-strict-cbr / qg-size=32 / no-rc-grain / qpmax=69 / qpmin=0 / no-const-vbv / sar=0 / overscan=0 / videoformat=5 / range=0 / colorprim=2 / transfer=2 / colormatrix=2 / chromaloc=0 / display-window=0 / max-cll=0,0 / min-luma=0 / max-luma=1023 / log2-max-poc-lsb=8 / vui-timing-info / vui-hrd-info / slices=1 / no-opt-qp-pps / no-opt-ref-list-length-pps / no-multi-pass-opt-rps / scenecut-bias=0.05 / no-opt-cu-delta-qp / no-aq-motion / no-hdr / no-hdr-opt / no-dhdr10-opt / no-idr-recovery-sei / analysis-reuse-level=5 / scale-factor=0 / refine-intra=0 / refine-inter=0 / refine-mv=0 / no-limit-sao / ctu-info=0 / no-lowpass-dct / refine-mv-type=0 / copy-pic=1 / max-ausize-factor=1.0 / no-dynamic-refine
Default : Yes
Forced : No

Audio #1
ID : 2
Format : AAC
Format/Info : Advanced Audio Codec
Format profile : LC
Codec ID : A_AAC
Duration : 49 min 50 s
Bit rate : 144 kb/s
Channel(s) : 2 channels
Channel positions : Front: L R
Sampling rate : 48.0 kHz
Frame rate : 46.875 FPS (1024 spf)
Compression mode : Lossy
Delay relative to video : 20 ms
Stream size : 51.9 MiB (4%)
Language : English
Default : Yes
Forced : No

Audio #2
ID : 3
Format : AAC
Format/Info : Advanced Audio Codec
Format profile : HE-AAC / LC
Codec ID : A_AAC
Duration : 49 min 50 s
Bit rate : 80.0 kb/s
Channel(s) : 2 channels
Channel positions : Front: L R
Sampling rate : 48.0 kHz / 24.0 kHz
Frame rate : 23.438 FPS (1024 spf)
Compression mode : Lossy
Delay relative to video : 40 ms
Stream size : 28.5 MiB (2%)
Language : German
Default : No
Forced : No

Menu
00:00:00.000 : en:Chapter 01
00:00:36.400 : en:Chapter 02
00:15:32.080 : en:Chapter 03
00:30:38.640 : en:Chapter 04
00:48:56.040 : en:Chapter 05

Source Information

Code:

Release:
Victoria.S02.MULTI.COMPLETE.BLURAY (Untouched German BluRay - Thanks!)


Note From QxR:

Quote:

Whilst we are happy for our releases to be re-posted on a platform we aren't on, please do so in an 'as-is' format. We ask that you do not create a new torrent, include all descriptions you see above including the QxR logo, tags, notes and screenshots. If you'd like to become a permanent poster on a website we don't post to, feel free to get in contact with a QxR member.




Related Torrents

torrent name size age seed leech
271.3 KB 6 minutes 735 256
2.1 GB 6 minutes 61 500
1.2 GB 6 minutes 761 175
12.0 MB 6 minutes 761 186
26.0 MB 6 minutes 493 133

Sharing Widget


Download torrent
10.9 GB
seeders:1214
leechers:386
Victoria (2016) Season 2 S02 + Extras (1080p BluRay x265 HEVC 10bit AAC 2 0 English+German RCVR) [QxR]



To share this torrent use the code below and insert it into comments, status messages, forum posts or your signature.

Torrent: Victoria (2016) Season 2 S02 + Extras (1080p BluRay x265 HEVC 10bit AAC 2 0 English+German RCVR) [QxR]

Comments

Latest Searches