Twenty Twenty Four 2016 1080p WEB DL DD5 1 H 264 CRO DIAMOND torrent download

seeders: 517
leechers: 302
updated:
Added ago by dmd12 ***** in Movies
Torrent Downloaded 10 times.
Info Hash: E9F85D706598A25D8DB6075DF8A6FCBBAEBDBE1E


Torrent Files

Twenty Twenty Four 2016 1080p WEB-DL DD5 1 H 264 CRO-DIAMOND (Size: 3.1 GB)
  Twenty Twenty Four 2016 1080p WEB-DL DD5 1 H 264 CRO-DIAMOND 3.1 GB

Torrent Description






Code:

General
Unique ID : 334505128308214310297325645389546635049 (0xFBA7582517B5D4C6E2B7FB70256FBF29)
Complete name : Twenty.Twenty.Four.2016.1080p.WEB-DL.DD5.1.H.264.CRO-DIAMOND.mkv
Format : Matroska
Format version : Version 4 / Version 2
File size : 3.11 GiB
Duration : 1h 31mn
Overall bit rate : 4 884 Kbps
Movie name : CRO DIAMOND 1080p
Encoded date : UTC 2018-05-21 16:44:04
Writing application : mkvmerge v22.0.0 ('At The End Of The World') 64-bit
Writing library : libebml v1.3.5 + libmatroska v1.4.8
DURATION : 01:29:06.641000000
NUMBER_OF_FRAMES : 446
NUMBER_OF_BYTES : 10500
_STATISTICS_WRITING_APP : mkvmerge v22.0.0 ('At The End Of The World') 64-bit
_STATISTICS_WRITING_DATE_UTC : 2018-05-21 16:44:04
_STATISTICS_TAGS : BPS DURATION NUMBER_OF_FRAMES NUMBER_OF_BYTES

Video
ID : 1
Format : AVC
Format/Info : Advanced Video Codec
Format profile : [email protected]
Format settings, CABAC : Yes
Format settings, ReFrames : 5 frames
Codec ID : V_MPEG4/ISO/AVC
Duration : 1h 31mn
Bit rate : 4 402 Kbps
Width : 1 916 pixels
Height : 796 pixels
Display aspect ratio : 2.40:1
Frame rate mode : Constant
Frame rate : 24.000 fps
Color space : YUV
Chroma subsampling : 4:2:0
Bit depth : 8 bits
Scan type : Progressive
Bits/(Pixel*Frame) : 0.120
Stream size : 2.81 GiB (90%)
Title : CRO DIAMOND 1080p
Language : English
Default : Yes
Forced : No
Color primaries : BT.709
Transfer characteristics : BT.709
Matrix coefficients : BT.709

Audio
ID : 2
Format : AC-3
Format/Info : Audio Coding 3
Mode extension : CM (complete main)
Format settings, Endianness : Big
Codec ID : A_AC3
Duration : 1h 31mn
Bit rate mode : Constant
Bit rate : 384 Kbps
Channel(s) : 6 channels
Channel positions : Front: L C R, Side: L R, LFE
Sampling rate : 48.0 KHz
Bit depth : 16 bits
Compression mode : Lossy
Delay relative to video : -42ms
Stream size : 251 MiB (8%)
Language : English
Default : Yes
Forced : No

Text
ID : 3
Format : UTF-8
Codec ID : S_TEXT/UTF8
Codec ID/Info : UTF-8 Plain Text
Language : English
Default : Yes
Forced : No

Menu
00:00:00.000 : en:Chapter 1
00:14:22.208 : en:Chapter 2
00:28:24.333 : en:Chapter 3
00:47:04.249 : en:Chapter 4
01:09:03.582 : en:Chapter 5
01:29:42.998 : en:Chapter 6



Related Torrents

torrent name size age seed leech
6.3 GB 1 minute 628 102
46.7 GB 1 minute 85 61
10.2 MB 3 minutes 136 277
264.0 MB 3 minutes 765 281
26.3 GB 3 minutes 164 7

Sharing Widget


Download torrent
3.1 GB
seeders:1214
leechers:386
Twenty Twenty Four 2016 1080p WEB-DL DD5 1 H 264 CRO-DIAMOND



To share this torrent use the code below and insert it into comments, status messages, forum posts or your signature.

Torrent: Twenty Twenty Four 2016 1080p WEB-DL DD5 1 H 264 CRO-DIAMOND

Comments

Latest Searches