The Originals S05E06 1080p AMZN WEBRip x265 AAC 5 1 D0ct0rLew [UTR] torrent download

seeders: 740
leechers: 106
updated:
Added ago by UTRCorp ***** in TV
Torrent Downloaded 10 times.
Info Hash: F68B1538F3EA41678A608F6EDF1DCBBBD8CE5F57


Torrent Files

The Originals S05E06 1080p AMZN WEBRip x265 AAC 5 1 D0ct0rLew [UTR] (Size: 827.9 MB)
  The Originals S05E06 1080p AMZN WEBRip x265 AAC 5 1 D0ct0rLew [UTR] 827.9 MB

Torrent Description










Media Information

Media Information

Code:

General
Format : Matroska
Format version : Version 4 / Version 2
File size : 828 MiB
Duration : 41 min 50 s
Overall bit rate : 2 766 kb/s
Encoded date : UTC 2018-06-01 00:56:52
Writing application : mkvmerge v23.0.0 ('The Bride Said No') 64-bit
Writing library : libebml v1.3.6 + libmatroska v1.4.9

Video
ID : 1
Format : HEVC
Format/Info : High Efficiency Video Coding
Format profile : Main [email protected]@Main
Codec ID : V_MPEGH/ISO/HEVC
Duration : 41 min 50 s
Bit rate : 2 316 kb/s
Width : 1 920 pixels
Height : 1 080 pixels
Display aspect ratio : 16:9
Frame rate mode : Constant
Frame rate : 23.976 (24000/1001) FPS
Color space : YUV
Chroma subsampling : 4:2:0
Bit depth : 10 bits
Bits/(Pixel*Frame) : 0.047
Stream size : 693 MiB (84%)
Writing library : x265 2.8+3-450421921079:[Windows][MSVC 1914][64 bit] 10bit
Encoding settings : cpuid=1111039 / frame-threads=2 / numa-pools=4 / wpp / no-pmode / no-pme / no-psnr / no-ssim / log-level=2 / input-csp=1 / input-res=1920x1080 / interlace=0 / total-frames=60202 / level-idc=0 / high-tier=1 / uhd-bd=0 / ref=4 / no-allow-non-conformance / no-repeat-headers / annexb / no-aud / no-hrd / info / hash=0 / no-temporal-layers / open-gop / min-keyint=23 / keyint=250 / gop-lookahead=0 / bframes=8 / b-adapt=2 / b-pyramid / bframe-bias=0 / rc-lookahead=80 / lookahead-slices=4 / scenecut=40 / radl=0 / no-intra-refresh / ctu=64 / min-cu-size=8 / no-rect / no-amp / max-tu-size=32 / tu-inter-depth=1 / tu-intra-depth=1 / limit-tu=0 / rdoq-level=2 / dynamic-rd=0.00 / no-ssim-rd / signhide / no-tskip / nr-intra=0 / nr-inter=0 / no-constrained-intra / no-strong-intra-smoothing / max-merge=3 / limit-refs=3 / limit-modes / me=3 / subme=3 / merange=57 / temporal-mvp / weightp / no-weightb / no-analyze-src-pics / deblock=1:1 / sao / no-sao-non-deblock / rd=4 / no-early-skip / rskip / no-fast-intra / no-tskip-fast / no-cu-lossless / no-b-intra / no-splitrd-skip / rdpenalty=0 / psy-rd=1.10 / psy-rdoq=1.00 / no-rd-refine / no-lossless / cbqpoffs=0 / crqpoffs=0 / rc=crf / crf=20.0 / qcomp=0.50 / qpstep=4 / stats-write=0 / stats-read=0 / ipratio=1.40 / pbratio=1.30 / aq-mode=3 / aq-strength=1.10 / cutree / zone-count=0 / no-strict-cbr / qg-size=32 / no-rc-grain / qpmax=69 / qpmin=0 / no-const-vbv / sar=0 / overscan=0 / videoformat=5 / range=0 / colorprim=2 / transfer=2 / colormatrix=2 / chromaloc=0 / display-window=0 / max-cll=0,0 / min-luma=0 / max-luma=1023 / log2-max-poc-lsb=8 / vui-timing-info / vui-hrd-info / slices=1 / no-opt-qp-pps / no-opt-ref-list-length-pps / no-multi-pass-opt-rps / scenecut-bias=0.05 / no-opt-cu-delta-qp / no-aq-motion / no-hdr / no-hdr-opt / no-dhdr10-opt / no-idr-recovery-sei / analysis-reuse-level=5 / scale-factor=0 / refine-intra=0 / refine-inter=0 / refine-mv=0 / no-limit-sao / ctu-info=0 / no-lowpass-dct / refine-mv-type=0 / copy-pic=1 / max-ausize-factor=1.0 / no-dynamic-refine / no-single-sei
Language : English
Default : Yes
Forced : No

Audio
ID : 2
Format : AAC
Format/Info : Advanced Audio Codec
Format profile : LC
Codec ID : A_AAC
Duration : 41 min 50 s
Bit rate : 448 kb/s
Channel(s) : 6 channels
Channel positions : Front: L C R, Side: L R, LFE
Sampling rate : 48.0 kHz
Frame rate : 46.875 FPS (1024 spf)
Compression mode : Lossy
Delay relative to video : 9 ms
Stream size : 134 MiB (16%)
Language : English
Default : Yes
Forced : No

Subtitle
ID : 3
Format : UTF-8
Codec ID : S_TEXT/UTF8
Codec ID/Info : UTF-8 Plain Text
Duration : 40 min 50 s
Bit rate : 73 b/s
Count of elements : 734
Stream size : 22.1 KiB (0%)
Language : English
Default : Yes
Forced : No



Source Information

Code:

Release:
Unknown Source/NO-GROUP




Related Torrents

torrent name size age seed leech
1.3 GB 1 minute 316 222
2.0 GB 1 minute 571 369
4.5 GB 1 minute 46 146
5.0 GB 1 minute 300 31
823.7 MB 9 minutes 94 262

Sharing Widget


Download torrent
827.9 MB
seeders:1214
leechers:386
The Originals S05E06 1080p AMZN WEBRip x265 AAC 5 1 D0ct0rLew [UTR]



To share this torrent use the code below and insert it into comments, status messages, forum posts or your signature.

Torrent: The Originals S05E06 1080p AMZN WEBRip x265 AAC 5 1 D0ct0rLew [UTR]

Comments

Latest Searches