Shifting Gears 2018 Movies 720p HDRip x264 5 1 with Sample ☻rDX☻ torrent download

seeders: 564
leechers: 477
updated:
Added ago by nehalpuja ***** in Movies
Torrent Downloaded 10 times.
Info Hash: C182173F0C3332A9E78C83E723D38E61FD6EC8EC


Torrent Files

Shifting Gears 2018 Movies 720p HDRip x264 5 1 with Sample ☻rDX☻ (Size: 965.1 MB)
  Shifting Gears 2018 Movies 720p HDRip x264 5 1 with Sample ☻rDX☻ 965.1 MB

Torrent Description



Shifting Gears 2018 Movies 720p HDRip x264 5.1 with Sample ☻rDX☻
===============================================================================================

SCREEN SHOTS:



or

http://iphonehosting.eu/2018/6/iphonex/1.html

File size : 956 MiB
Duration : 1 h 41 min
Overall bit rate : 1 315 kb/s
Movie name : Shifting Gears 2018 Movies 720p HDRip x264 5.1 ☻rDX☻

Video
ID : 2
Format : AVC
Format/Info : Advanced Video Codec
Format profile : [email protected]
Format settings, CABAC : Yes
Format settings, ReFrames : 4 frames
Codec ID : V_MPEG4/ISO/AVC
Duration : 1 h 41 min
Bit rate : 930 kb/s
Width : 1 280 pixels
Height : 720 pixels
Display aspect ratio : 16:9
Frame rate mode : Constant
Frame rate : 23.976 (24000/1001) FPS
Color space : YUV
Chroma subsampling : 4:2:0
Bit depth : 8 bits
Scan type : Progressive
Bits/(Pixel*Frame) : 0.042
Stream size : 658 MiB (69%)
Title : ☻rDX☻
Writing library : x264

Audio
ID : 1
Format : AC-3
Format/Info : Audio Coding 3
Mode extension : CM (complete main)
Format settings, Endianness : Big
Codec ID : A_AC3
Duration : 1 h 41 min
Bit rate mode : Constant
Bit rate : 384 kb/s
Channel(s) : 6 channels
Channel positions : Front: L C R, Side: L R, LFE
Sampling rate : 48.0 kHz
Frame rate : 31.250 FPS (1536 spf)
Bit depth : 16 bits
Compression mode : Lossy
Delay relative to video : -21 ms
Stream size : 279 MiB (29%)
Title : ☻rDX☻
Default : Yes
Forced : No



IMDB : http://www.imdb.com/title/tt4264610



Related Torrents

torrent name size age seed leech
558.1 MB 3 minutes 616 283
109.8 MB 3 minutes 509 364
1.4 GB 3 minutes 88 130
111.6 MB 3 minutes 312 119
391.8 KB 3 minutes 294 426

Sharing Widget


Download torrent
965.1 MB
seeders:1214
leechers:386
Shifting Gears 2018 Movies 720p HDRip x264 5 1 with Sample ☻rDX☻



To share this torrent use the code below and insert it into comments, status messages, forum posts or your signature.

Torrent: Shifting Gears 2018 Movies 720p HDRip x264 5 1 with Sample ☻rDX☻

Comments

Latest Searches