Richie (2018) 720p HIndi Dubbed HDRip x264 AAC by Full4movies torrent download

seeders: 534
leechers: 422
updated:
Added ago by shmasti ***** in Movies
Torrent Downloaded 10 times.
Info Hash: 91BE1454FE5B724CC0FAAD5F94675B941F1B83AA


Torrent Files

Richie (2018) 720p HIndi Dubbed HDRip x264 AAC by Full4movies (Size: 855.2 MB)
  Richie (2018) 720p HIndi Dubbed HDRip x264 AAC by Full4movies 855.2 MB

Torrent Description





General
Complete name : Richie (2018) 720p HIndi Dubbed HDRip x264 AAC by Full4movies.mkv
Format : Matroska
Format version : Version 4 / Version 2
File size : 855 MiB
Duration : 1 h 38 min
Overall bit rate : 1 216 kb/s
Encoded date : UTC 2018-06-13 10:21:28
Writing application : mkvmerge v8.1.0 ('Psychedelic Postcard') 32bit
Writing library : libebml v1.3.1 + libmatroska v1.4.2

Video
ID : 1
Format : AVC
Format/Info : Advanced Video Codec
Format profile : [email protected]
Format settings, CABAC : Yes
Format settings, RefFrames : 3 frames
Codec ID : V_MPEG4/ISO/AVC
Duration : 1 h 38 min
Bit rate : 1 089 kb/s
Width : 1 280 pixels
Height : 720 pixels
Display aspect ratio : 16:9
Frame rate mode : Constant
Frame rate : 25.000 FPS
Color space : YUV
Chroma subsampling : 4:2:0
Bit depth : 8 bits
Scan type : Progressive
Bits/(Pixel*Frame) : 0.047
Stream size : 765 MiB (89%)
Default : Yes
Forced : No
Color range : Limited
Color primaries : BT.709
Transfer characteristics : BT.709
Matrix coefficients : BT.709

Audio
ID : 2
Format : AAC
Format/Info : Advanced Audio Codec
Format profile : LC
Codec ID : A_AAC
Duration : 1 h 38 min
Bit rate : 126 kb/s
Channel(s) : 2 channels
Channel positions : Front: L R
Sampling rate : 44.1 kHz
Frame rate : 43.066 FPS (1024 SPF)
Compression mode : Lossy
Stream size : 88.3 MiB (10%)
Language : English
Default : Yes
Forced : No

Screen Shoots



Related Torrents

torrent name size age seed leech
366.0 MB 4 minutes 258 484
C0616006
Posted by   Guest  in  Video
254.8 MB 4 minutes 750 289
355.4 MB 4 minutes 468 277
2.4 GB 4 minutes 122 69
109.9 MB 4 minutes 548 274

Sharing Widget


Download torrent
855.2 MB
seeders:1214
leechers:386
Richie (2018) 720p HIndi Dubbed HDRip x264 AAC by Full4movies



To share this torrent use the code below and insert it into comments, status messages, forum posts or your signature.

Torrent: Richie (2018) 720p HIndi Dubbed HDRip x264 AAC by Full4movies

Comments

Latest Searches