[REUP] The Night Manager (2016) Season 01 S01 (1080p BluRay x265 HEVC 10bit AAC 5 1 Qman) [UTR] torrent download

seeders: 88
leechers: 84
updated:
Added ago by UTRCorp ***** in TV
Torrent Downloaded 10 times.
Info Hash: 8683432901B041F50BA0C9589525766F5BD968D8


Torrent Files

[REUP] The Night Manager (2016) Season 01 S01 (1080p BluRay x265 HEVC 10bit AAC 5 1 Qman) [UTR] (Size: 8.5 GB)
  [REUP] The Night Manager (2016) Season 01 S01 (1080p BluRay x265 HEVC 10bit AAC 5 1 Qman) [UTR] 8.5 GB

Torrent Description










Media Information

Media Information

Code:

General
Format : Matroska
Format version : Version 4 / Version 2
File size : 1.81 GiB
Duration : 57 min 32 s
Overall bit rate : 4 492 kb/s
Encoded date : UTC 2016-05-21 14:33:42
Writing application : mkvmerge v9.1.0 ('Little Earthquakes') 64bit
Writing library : libebml v1.3.3 + libmatroska v1.4.4

Video
ID : 1
Format : HEVC
Format/Info : High Efficiency Video Coding
Format profile : Main [email protected]@Main
Codec ID : V_MPEGH/ISO/HEVC
Duration : 57 min 32 s
Bit rate : 4 079 kb/s
Width : 1 920 pixels
Height : 1 080 pixels
Display aspect ratio : 16:9
Frame rate mode : Constant
Frame rate : 25.000 FPS
Color space : YUV
Chroma subsampling : 4:2:0
Bit depth : 10 bits
Bits/(Pixel*Frame) : 0.079
Stream size : 1.64 GiB (91%)
Writing library : x265 1.9+141-02d79be487d7:[Windows][MSVC 1900][64 bit] 10bit
Encoding settings : wpp / ctu=64 / min-cu-size=8 / max-tu-size=32 / tu-intra-depth=1 / tu-inter-depth=1 / me=3 / subme=2 / merange=57 / no-rect / no-amp / max-merge=2 / temporal-mvp / no-early-skip / rdpenalty=0 / no-tskip / no-tskip-fast / no-strong-intra-smoothing / no-lossless / no-cu-lossless / no-constrained-intra / no-fast-intra / open-gop / no-temporal-layers / interlace=0 / keyint=250 / min-keyint=25 / scenecut=40 / rc-lookahead=20 / lookahead-slices=6 / bframes=4 / bframe-bias=0 / b-adapt=2 / ref=3 / limit-refs=3 / no-limit-modes / weightp / no-weightb / aq-mode=3 / qg-size=32 / aq-strength=1.00 / cbqpoffs=0 / crqpoffs=0 / rd=3 / psy-rd=2.00 / rdoq-level=1 / psy-rdoq=0.00 / no-rd-refine / signhide / deblock=-1:-1 / sao / no-sao-non-deblock / b-pyramid / cutree / no-intra-refresh / rc=crf / crf=22.0 / qcomp=0.60 / qpmin=0 / qpmax=51 / qpstep=4 / ipratio=1.40 / pbratio=1.30
Language : English
Default : Yes
Forced : No

Audio
ID : 2
Format : AAC
Format/Info : Advanced Audio Codec
Format profile : LC
Codec ID : A_AAC
Duration : 57 min 32 s
Bit rate : 411 kb/s
Channel(s) : 6 channels
Channel positions : Front: L C R, Side: L R, LFE
Sampling rate : 48.0 kHz
Frame rate : 46.875 FPS (1024 spf)
Compression mode : Lossy
Delay relative to video : 20 ms
Stream size : 169 MiB (9%)
Language : English
Default : Yes
Forced : No

Menu
00:00:00.000 : en:00:00:00.000
00:09:34.840 : en:00:09:34.840
00:19:58.040 : en:00:19:58.040
00:29:33.400 : en:00:29:33.400
00:38:03.320 : en:00:38:03.320
00:47:23.360 : en:00:47:23.360



Source Information

Code:

Release:
Unknown Source/NO-GROUP




Related Torrents

torrent name size age seed leech
271.3 KB 7 minutes 232 356
2.1 GB 7 minutes 271 11
1.2 GB 7 minutes 433 306
12.0 MB 7 minutes 243 427
26.0 MB 7 minutes 308 332

Sharing Widget


Download torrent
8.5 GB
seeders:1214
leechers:386
[REUP] The Night Manager (2016) Season 01 S01 (1080p BluRay x265 HEVC 10bit AAC 5 1 Qman) [UTR]



To share this torrent use the code below and insert it into comments, status messages, forum posts or your signature.

Torrent: [REUP] The Night Manager (2016) Season 01 S01 (1080p BluRay x265 HEVC 10bit AAC 5 1 Qman) [UTR]

Comments

Latest Searches