Preacher (2016) Season 2 S02 + Extras (1080p BluRay x265 HEVC 10bit AAC 5 1 English+French+German RCVR) [QxR] torrent download

seeders: 240
leechers: 393
updated:
Added ago by QxR ***** in TV
Torrent Downloaded 10 times.
Info Hash: 85CD9CBC5A72ABEA96015E70847D0E8748D54705


Torrent Files

Preacher (2016) Season 2 S02 + Extras (1080p BluRay x265 HEVC 10bit AAC 5 1 English+French+German RCVR) [QxR] (Size: 14.4 GB)
  Preacher (2016) Season 2 S02 + Extras (1080p BluRay x265 HEVC 10bit AAC 5 1 English+French+German RCVR) [QxR] 14.4 GB

Torrent Description







Media Information

Code:

General
Format : Matroska
Format version : Version 4 / Version 2
File size : 1.20 GiB
Duration : 44 min 30 s
Overall bit rate : 3 875 kb/s
Movie name : Preacher (2016) - Season 2 - Disc 1
Encoded date : UTC 2018-04-25 19:34:53
Writing application : mkvmerge v12.0.0 ('Trust / Lust') 64bit
Writing library : libebml v1.3.4 + libmatroska v1.4.5
Cover : Yes
Attachments : cover.jpg

Video
ID : 1
Format : HEVC
Format/Info : High Efficiency Video Coding
Format profile : Main [email protected]@Main
Codec ID : V_MPEGH/ISO/HEVC
Duration : 44 min 30 s
Bit rate : 2 959 kb/s
Width : 1 920 pixels
Height : 1 080 pixels
Display aspect ratio : 16:9
Frame rate mode : Constant
Frame rate : 23.976 (24000/1001) FPS
Color space : YUV
Chroma subsampling : 4:2:0
Bit depth : 10 bits
Bits/(Pixel*Frame) : 0.060
Stream size : 942 MiB (76%)
Writing library : x265 2.7+342-930e3cc385df:[Windows][MSVC 1900][64 bit] 10bit
Encoding settings : cpuid=1111039 / frame-threads=3 / numa-pools=8 / wpp / no-pmode / no-pme / no-psnr / no-ssim / log-level=2 / input-csp=1 / input-res=1920x1080 / interlace=0 / total-frames=64032 / level-idc=0 / high-tier=1 / uhd-bd=0 / ref=5 / no-allow-non-conformance / no-repeat-headers / annexb / no-aud / no-hrd / info / hash=0 / no-temporal-layers / open-gop / min-keyint=23 / keyint=250 / gop-lookahead=0 / bframes=8 / b-adapt=2 / b-pyramid / bframe-bias=0 / rc-lookahead=80 / lookahead-slices=4 / scenecut=40 / radl=0 / no-intra-refresh / ctu=64 / min-cu-size=8 / rect / amp / max-tu-size=32 / tu-inter-depth=2 / tu-intra-depth=2 / limit-tu=4 / rdoq-level=2 / dynamic-rd=0.00 / no-ssim-rd / signhide / no-tskip / nr-intra=0 / nr-inter=0 / no-constrained-intra / no-strong-intra-smoothing / max-merge=4 / limit-refs=2 / limit-modes / me=3 / subme=5 / merange=57 / temporal-mvp / weightp / weightb / no-analyze-src-pics / deblock=-3:-3 / no-sao / no-sao-non-deblock / rd=5 / no-early-skip / no-rskip / no-fast-intra / no-tskip-fast / no-cu-lossless / b-intra / no-splitrd-skip / rdpenalty=0 / psy-rd=1.40 / psy-rdoq=1.60 / no-rd-refine / no-lossless / cbqpoffs=0 / crqpoffs=0 / rc=crf / crf=21.0 / qcomp=0.60 / qpstep=4 / stats-write=0 / stats-read=0 / ipratio=1.40 / pbratio=1.30 / aq-mode=3 / aq-strength=0.90 / cutree / zone-count=0 / no-strict-cbr / qg-size=32 / no-rc-grain / qpmax=69 / qpmin=0 / no-const-vbv / sar=0 / overscan=0 / videoformat=5 / range=0 / colorprim=2 / transfer=2 / colormatrix=2 / chromaloc=0 / display-window=0 / max-cll=0,0 / min-luma=0 / max-luma=1023 / log2-max-poc-lsb=8 / vui-timing-info / vui-hrd-info / slices=1 / no-opt-qp-pps / no-opt-ref-list-length-pps / no-multi-pass-opt-rps / scenecut-bias=0.05 / no-opt-cu-delta-qp / no-aq-motion / no-hdr / no-hdr-opt / no-dhdr10-opt / no-idr-recovery-sei / analysis-reuse-level=5 / scale-factor=0 / refine-intra=0 / refine-inter=0 / refine-mv=0 / no-limit-sao / ctu-info=0 / no-lowpass-dct / refine-mv-type=0 / copy-pic=1 / max-ausize-factor=1.0 / no-dynamic-refine / no-single-sei
Default : Yes
Forced : No

Audio #1
ID : 2
Format : AAC
Format/Info : Advanced Audio Codec
Format profile : LC
Codec ID : A_AAC
Duration : 44 min 30 s
Bit rate : 429 kb/s
Channel(s) : 6 channels
Channel positions : Front: L C R, Side: L R, LFE
Sampling rate : 48.0 kHz
Frame rate : 46.875 FPS (1024 spf)
Compression mode : Lossy
Delay relative to video : 20 ms
Stream size : 137 MiB (11%)
Language : English
Default : Yes
Forced : No

Audio #2
ID : 3
Format : AAC
Format/Info : Advanced Audio Codec
Format profile : HE-AAC / LC
Codec ID : A_AAC
Duration : 44 min 30 s
Bit rate : 192 kb/s
Channel(s) : 6 channels
Channel positions : Front: L C R, Side: L R, LFE
Sampling rate : 48.0 kHz / 24.0 kHz
Frame rate : 23.438 FPS (1024 spf)
Compression mode : Lossy
Delay relative to video : 40 ms
Stream size : 61.1 MiB (5%)
Language : French
Default : No
Forced : No

Audio #3
ID : 4
Format : AAC
Format/Info : Advanced Audio Codec
Format profile : HE-AAC / LC
Codec ID : A_AAC
Duration : 44 min 30 s
Bit rate : 192 kb/s
Channel(s) : 6 channels
Channel positions : Front: L C R, Side: L R, LFE
Sampling rate : 48.0 kHz / 24.0 kHz
Frame rate : 23.438 FPS (1024 spf)
Compression mode : Lossy
Delay relative to video : 40 ms
Stream size : 61.1 MiB (5%)
Language : German
Default : No
Forced : No

Subtitle #1
ID : 5
Format : PGS
Muxing mode : zlib
Codec ID : S_HDMV/PGS
Codec ID/Info : Picture based subtitle format used on BDs/HD-DVDs
Duration : 43 min 20 s
Bit rate : 12.6 kb/s
Count of elements : 1388
Stream size : 3.89 MiB (0%)
Language : English
Default : No
Forced : No

Subtitle #2
ID : 6
Format : PGS
Muxing mode : zlib
Codec ID : S_HDMV/PGS
Codec ID/Info : Picture based subtitle format used on BDs/HD-DVDs
Duration : 43 min 20 s
Bit rate : 11.0 kb/s
Count of elements : 1198
Stream size : 3.40 MiB (0%)
Language : English
Default : No
Forced : No

Subtitle #3
ID : 7
Format : PGS
Muxing mode : zlib
Codec ID : S_HDMV/PGS
Codec ID/Info : Picture based subtitle format used on BDs/HD-DVDs
Duration : 43 min 20 s
Bit rate : 12.6 kb/s
Count of elements : 1388
Stream size : 3.89 MiB (0%)
Language : English
Default : No
Forced : No

Subtitle #4
ID : 8
Format : PGS
Muxing mode : zlib
Codec ID : S_HDMV/PGS
Codec ID/Info : Picture based subtitle format used on BDs/HD-DVDs
Duration : 43 min 20 s
Bit rate : 11.0 kb/s
Count of elements : 1198
Stream size : 3.40 MiB (0%)
Language : English
Default : No
Forced : No

Subtitle #5
ID : 9
Format : PGS
Muxing mode : zlib
Codec ID : S_HDMV/PGS
Codec ID/Info : Picture based subtitle format used on BDs/HD-DVDs
Duration : 44 min 22 s
Bit rate : 9 225 b/s
Count of elements : 1216
Stream size : 2.93 MiB (0%)
Language : Arabic
Default : No
Forced : No

Subtitle #6
ID : 10
Format : PGS
Muxing mode : zlib
Codec ID : S_HDMV/PGS
Codec ID/Info : Picture based subtitle format used on BDs/HD-DVDs
Duration : 44 min 22 s
Bit rate : 10.4 kb/s
Count of elements : 1208
Stream size : 3.31 MiB (0%)
Language : French
Default : No
Forced : No

Subtitle #7
ID : 11
Format : PGS
Muxing mode : zlib
Codec ID : S_HDMV/PGS
Codec ID/Info : Picture based subtitle format used on BDs/HD-DVDs
Duration : 44 min 22 s
Bit rate : 11.4 kb/s
Count of elements : 1212
Stream size : 3.60 MiB (0%)
Language : German
Default : No
Forced : No

Subtitle #8
ID : 12
Format : PGS
Muxing mode : zlib
Codec ID : S_HDMV/PGS
Codec ID/Info : Picture based subtitle format used on BDs/HD-DVDs
Duration : 44 min 22 s
Bit rate : 11.1 kb/s
Count of elements : 1214
Stream size : 3.52 MiB (0%)
Language : Polish
Default : No
Forced : No

Subtitle #9
ID : 13
Format : PGS
Muxing mode : zlib
Codec ID : S_HDMV/PGS
Codec ID/Info : Picture based subtitle format used on BDs/HD-DVDs
Duration : 44 min 17 s
Bit rate : 10.7 kb/s
Count of elements : 1212
Stream size : 3.38 MiB (0%)
Language : Turkish
Default : No
Forced : No

Menu
00:00:00.000 : en:Chapter 01
00:10:21.871 : en:Chapter 02
00:16:05.965 : en:Chapter 03
00:21:15.857 : en:Chapter 04
00:32:24.609 : en:Chapter 05
00:39:14.101 : en:Chapter 06
00:43:59.511 : en:Chapter 07

Source Information

Code:

Release:
Untouched German BluRay


Note From QxR:

Quote:

Whilst we are happy for our releases to be re-posted on a platform we aren't on, please do so in an 'as-is' format. We ask that you do not create a new torrent, include all descriptions you see above including the QxR logo, tags, notes and screenshots. If you'd like to become a permanent poster on a website we don't post to, feel free to get in contact with a QxR member.




Related Torrents

torrent name size age seed leech
890.1 MB 17 seconds 740 282
4.3 GB 17 seconds 227 81
1.5 GB 17 seconds 86 269
271.3 KB 8 minutes 225 157
2.1 GB 8 minutes 778 333

Sharing Widget


Download torrent
14.4 GB
seeders:1214
leechers:386
Preacher (2016) Season 2 S02 + Extras (1080p BluRay x265 HEVC 10bit AAC 5 1 English+French+German RCVR) [QxR]



To share this torrent use the code below and insert it into comments, status messages, forum posts or your signature.

Torrent: Preacher (2016) Season 2 S02 + Extras (1080p BluRay x265 HEVC 10bit AAC 5 1 English+French+German RCVR) [QxR]

Comments

Latest Searches