Oceans 8 2018 720p HD TS X264 ENG LLG torrent download

seeders: 158
leechers: 355
updated:
Added ago by LifeLongg ***** in Movies
Torrent Downloaded 10 times.
Info Hash: 27FFF2CEDB680A0DD22C97B6FCBFA76BDC53F10E


Torrent Files

Oceans 8 2018 720p HD-TS X264 ENG LLG (Size: 1.0 GB)
  Oceans 8 2018 720p HD-TS X264 ENG LLG 1.0 GB

Torrent Description



******************************Thumbnail:**********************



******************************Screenshots:********************

Screenshot 1

Screenshot 2

Screenshot 3

Screenshot 4

Screenshot 5

Screenshot 6

Screenshot 7

Screenshot 8

Screenshot 9

Screenshot 0

**************************************************************

Complete name : Oceans.8.2018.720p.HD-TS.X264.ENG.LLG.mp4
Format : MPEG-4
Format profile : Base Media
Codec ID : isom (isom/iso2/avc1/mp41)
File size : 991 MiB
Duration : 1 h 43 min
Overall bit rate : 1 336 kb/s
Writing application : Lavf57.56.101

Video
ID : 1
Format : AVC
Format/Info : Advanced Video Codec
Format profile : [email protected]
Format settings : CABAC / 4 Ref Frames
Format settings, CABAC : Yes
Format settings, RefFrames : 4 frames
Codec ID : avc1
Codec ID/Info : Advanced Video Coding
Duration : 1 h 43 min
Bit rate : 1 200 kb/s
Width : 1 280 pixels
Height : 536 pixels
Display aspect ratio : 2.40:1
Frame rate mode : Constant
Frame rate : 23.976 (23976/1000) FPS
Color space : YUV
Chroma subsampling : 4:2:0
Bit depth : 8 bits
Scan type : Progressive
Bits/(Pixel*Frame) : 0.073
Stream size : 891 MiB (90%)


Audio
ID : 2
Format : MPEG Audio
Format version : Version 1
Format profile : Layer 3
Format settings : Joint stereo / MS Stereo
Codec ID : mp4a-6B
Duration : 1 h 43 min
Bit rate mode : Constant
Bit rate : 128 kb/s
Channel(s) : 2 channels
Sampling rate : 44.1 kHz
Compression mode : Lossy
Stream size : 94.9 MiB (10%)
Writing library : LAME3.99.5
Default : Yes
Alternate group : 1



Related Torrents

torrent name size age seed leech
3.6 GB 3 minutes 770 305
1.4 GB 3 minutes 598 439
Varios 44
Posted by   Guest  in  Music
382.7 MB 5 minutes 313 183
563.9 MB 5 minutes 64 56
674.5 KB 5 minutes 142 481

Sharing Widget


Download torrent
1.0 GB
seeders:1214
leechers:386
Oceans 8 2018 720p HD-TS X264 ENG LLG



To share this torrent use the code below and insert it into comments, status messages, forum posts or your signature.

Torrent: Oceans 8 2018 720p HD-TS X264 ENG LLG

Comments

Latest Searches