Miss Peregrines Home for Peculiar Children (2016) 2160p HDR 5 1 x265 10bit Phun Psyz torrent download

seeders: 595
leechers: 263
updated:
Added ago by PhunPsyz ***** in Movies
Torrent Downloaded 10 times.
Info Hash: 6D1C8776A9EAD1FA8778768C64568BCE049B5E7E


Torrent Files

Miss Peregrines Home for Peculiar Children (2016) 2160p HDR 5 1 x265 10bit Phun Psyz (Size: 3.7 GB)
  Miss Peregrines Home for Peculiar Children (2016) 2160p HDR 5 1 x265 10bit Phun Psyz 3.7 GB

Torrent Description



www.imdb.com/title/tt1935859/

When Jacob discovers clues to a mystery that stretches across time, he finds Miss Peregrine's Home for Peculiar Children. But the danger deepens after he gets to know the residents and learns about their special powers.

Source: TERMiNAL (HDR) (17.6 GiB)



Format : Matroska
Format version : Version 4 / Version 2
File size : 3.67 GiB
Duration : 2 h 6 min
Overall bit rate : 4 140 kb/s

Video
ID : 1
Format : HEVC
Format/Info : High Efficiency Video Coding
Format profile : Main [email protected]@High
Codec ID : V_MPEGH/ISO/HEVC
Duration : 2 h 6 min
Bit rate : 3 738 kb/s
Width : 3 840 pixels
Height : 2 076 pixels
Display aspect ratio : 1.85:1
Frame rate mode : Constant
Frame rate : 23.976 (24000/1001) FPS
Color space : YUV
Chroma subsampling : 4:2:0
Bit depth : 10 bits
Bits/(Pixel*Frame) : 0.020
Stream size : 3.31 GiB (90%)
Writing library : x265 2.6:[Windows][GCC 7.1.0][64 bit] 10bit

Audio
ID : 2
Format : AC-3
Format/Info : Audio Coding 3
Format settings, Endianness : Big
Codec ID : A_AC3
Duration : 2 h 6 min
Bit rate mode : Constant
Bit rate : 320 kb/s
Channel(s) : 6 channels
Channel positions : Front: L C R, Side: L R, LFE
Sampling rate : 48.0 kHz
Frame rate : 31.250 FPS (1536 SPF)
Bit depth : 16 bits
Compression mode : Lossy
Stream size : 291 MiB (8%)
Title : Surround
Language : English

Text
Language : English
Language : Spanish
Language : French
Language : Spanish
Language : Danish
Language : Dutch
Language : Finnish
Language : German
Language : Italian
Language : Norwegian
Language : Swedish
Language : Chinese
Language : Chinese
Default : No
Forced : No



Related Torrents

torrent name size age seed leech
10.4 MB 1 minute 329 429
5.2 GB 1 minute 325 330
3.4 GB 1 minute 792 261
Jock Shock wmv
Posted by   Guest  in  Video
825.8 MB 1 minute 758 185
404.5 MB 1 minute 590 10

Sharing Widget


Download torrent
3.7 GB
seeders:1214
leechers:386
Miss Peregrines Home for Peculiar Children (2016) 2160p HDR 5 1 x265 10bit Phun Psyz



To share this torrent use the code below and insert it into comments, status messages, forum posts or your signature.

Torrent: Miss Peregrines Home for Peculiar Children (2016) 2160p HDR 5 1 x265 10bit Phun Psyz

Comments

Latest Searches