Madtown 2016 720p WEB DL DD5 1 H 264 CRO DIAMOND torrent download

seeders: 769
leechers: 41
updated:
Added ago by dmd12 ***** in Movies
Torrent Downloaded 10 times.
Info Hash: F57707FBC4C80B0BFBCD7868709F63498F40490B


Torrent Files

Madtown 2016 720p WEB-DL DD5 1 H 264 CRO-DIAMOND (Size: 3.5 GB)
  Madtown 2016 720p WEB-DL DD5 1 H 264 CRO-DIAMOND 3.5 GB

Torrent Description






Code:

General
Unique ID : 159589974385052058294501059898577762639 (0x780FE93A857D5B9227013E887B03B94F)
Complete name : Madtown.2016.720p.WEB-DL.DD5.1.H.264.CRO-DIAMOND.mkv
Format : Matroska
Format version : Version 4 / Version 2
File size : 3.49 GiB
Duration : 1h 52mn
Overall bit rate : 4 455 Kbps
Movie name : CRO DIAMOND 1080p
Encoded date : UTC 2018-06-03 10:19:07
Writing application : mkvmerge v22.0.0 ('At The End Of The World') 64-bit
Writing library : libebml v1.3.5 + libmatroska v1.4.8
DURATION : 01:51:43.564000000
NUMBER_OF_FRAMES : 2339
NUMBER_OF_BYTES : 72186
_STATISTICS_WRITING_APP : mkvmerge v22.0.0 ('At The End Of The World') 64-bit
_STATISTICS_WRITING_DATE_UTC : 2018-06-03 10:19:07
_STATISTICS_TAGS : BPS DURATION NUMBER_OF_FRAMES NUMBER_OF_BYTES

Video
ID : 1
Format : AVC
Format/Info : Advanced Video Codec
Format profile : [email protected]
Format settings, CABAC : No
Format settings, ReFrames : 2 frames
Codec ID : V_MPEG4/ISO/AVC
Duration : 1h 52mn
Bit rate : 3 982 Kbps
Width : 1 280 pixels
Height : 634 pixels
Display aspect ratio : 2.019
Frame rate mode : Constant
Frame rate : 23.976 fps
Color space : YUV
Chroma subsampling : 4:2:0
Bit depth : 8 bits
Scan type : Progressive
Bits/(Pixel*Frame) : 0.205
Stream size : 3.12 GiB (89%)
Title : CRO DIAMOND 1080p
Language : English
Default : Yes
Forced : No
Color primaries : BT.709
Transfer characteristics : BT.709
Matrix coefficients : BT.709

Audio
ID : 2
Format : AC-3
Format/Info : Audio Coding 3
Mode extension : CM (complete main)
Format settings, Endianness : Big
Codec ID : A_AC3
Duration : 1h 52mn
Bit rate mode : Constant
Bit rate : 384 Kbps
Channel(s) : 6 channels
Channel positions : Front: L C R, Side: L R, LFE
Sampling rate : 48.0 KHz
Bit depth : 16 bits
Compression mode : Lossy
Delay relative to video : -42ms
Stream size : 308 MiB (9%)
Language : English
Default : Yes
Forced : No

Text
ID : 3
Format : UTF-8
Codec ID : S_TEXT/UTF8
Codec ID/Info : UTF-8 Plain Text
Language : English
Default : Yes
Forced : No

Menu
00:00:00.000 : en:1
00:06:29.180 : en:2
00:14:40.087 : en:3
00:20:28.518 : en:4
00:26:31.339 : en:5
00:37:16.233 : en:6
00:41:55.387 : en:7
00:49:09.571 : en:8
00:56:03.234 : en:9
01:03:59.460 : en:10
01:13:18.644 : en:11
01:16:59.865 : en:12
01:25:00.845 : en:13
01:30:03.147 : en:14
01:36:41.879 : en:15
01:46:13.617 : en:16



Related Torrents

torrent name size age seed leech
6.3 GB 1 minute 165 393
46.7 GB 1 minute 573 188
10.2 MB 3 minutes 680 414
264.0 MB 3 minutes 92 442
26.3 GB 3 minutes 40 23

Sharing Widget


Download torrent
3.5 GB
seeders:1214
leechers:386
Madtown 2016 720p WEB-DL DD5 1 H 264 CRO-DIAMOND



To share this torrent use the code below and insert it into comments, status messages, forum posts or your signature.

Torrent: Madtown 2016 720p WEB-DL DD5 1 H 264 CRO-DIAMOND

Comments

Latest Searches