Madtown 2016 1080p WEB DL DD5 1 H 264 CRO DIAMOND torrent download

seeders: 644
leechers: 371
updated:
Added ago by dmd12 ***** in Movies
Torrent Downloaded 10 times.
Info Hash: A79F8A777B7691EBE2563E671C4548CA36399EF6


Torrent Files

Madtown 2016 1080p WEB-DL DD5 1 H 264 CRO-DIAMOND (Size: 3.9 GB)
  Madtown 2016 1080p WEB-DL DD5 1 H 264 CRO-DIAMOND 3.9 GB

Torrent Description






Code:

General
Unique ID : 276549256839930892212032807655322375638 (0xD00D73116C529D2C2BFBBB6F0FB755D6)
Complete name : Madtown.2016.1080p.WEB-DL.DD5.1.H.264.CRO-DIAMOND.mkv
Format : Matroska
Format version : Version 4 / Version 2
File size : 3.92 GiB
Duration : 1h 52mn
Overall bit rate : 4 998 Kbps
Movie name : CRO DIAMOND 1080p
Encoded date : UTC 2018-05-20 12:18:01
Writing application : mkvmerge v22.0.0 ('At The End Of The World') 64-bit
Writing library : libebml v1.3.5 + libmatroska v1.4.8
DURATION : 01:51:43.564000000
NUMBER_OF_FRAMES : 2339
NUMBER_OF_BYTES : 72186
_STATISTICS_WRITING_APP : mkvmerge v22.0.0 ('At The End Of The World') 64-bit
_STATISTICS_WRITING_DATE_UTC : 2018-05-20 12:18:01
_STATISTICS_TAGS : BPS DURATION NUMBER_OF_FRAMES NUMBER_OF_BYTES

Video
ID : 1
Format : AVC
Format/Info : Advanced Video Codec
Format profile : [email protected]
Format settings, CABAC : Yes
Format settings, ReFrames : 4 frames
Codec ID : V_MPEG4/ISO/AVC
Duration : 1h 52mn
Bit rate : 4 514 Kbps
Width : 1 920 pixels
Height : 952 pixels
Display aspect ratio : 2.017
Frame rate mode : Constant
Frame rate : 23.976 fps
Color space : YUV
Chroma subsampling : 4:2:0
Bit depth : 8 bits
Scan type : Progressive
Bits/(Pixel*Frame) : 0.103
Stream size : 3.54 GiB (90%)
Title : CRO DIAMOND 1080p
Language : English
Default : Yes
Forced : No
Color primaries : BT.709
Transfer characteristics : BT.709
Matrix coefficients : BT.709

Audio
ID : 2
Format : AC-3
Format/Info : Audio Coding 3
Mode extension : CM (complete main)
Format settings, Endianness : Big
Codec ID : A_AC3
Duration : 1h 52mn
Bit rate mode : Constant
Bit rate : 384 Kbps
Channel(s) : 6 channels
Channel positions : Front: L C R, Side: L R, LFE
Sampling rate : 48.0 KHz
Bit depth : 16 bits
Compression mode : Lossy
Delay relative to video : -42ms
Stream size : 308 MiB (8%)
Language : English
Default : Yes
Forced : No

Text
ID : 3
Format : UTF-8
Codec ID : S_TEXT/UTF8
Codec ID/Info : UTF-8 Plain Text
Language : English
Default : Yes
Forced : No

Menu
00:00:00.000 : en:1
00:06:29.180 : en:2
00:14:40.087 : en:3
00:20:28.518 : en:4
00:26:31.339 : en:5
00:37:16.233 : en:6
00:41:55.387 : en:7
00:49:09.571 : en:8
00:56:03.234 : en:9
01:03:59.460 : en:10
01:13:18.644 : en:11
01:16:59.865 : en:12
01:25:00.845 : en:13
01:30:03.147 : en:14
01:36:41.879 : en:15
01:46:13.617 : en:16



Related Torrents

torrent name size age seed leech
6.3 GB 55 seconds 71 310
46.7 GB 55 seconds 653 423
10.2 MB 2 minutes 153 352
264.0 MB 2 minutes 609 97
26.3 GB 2 minutes 325 201

Sharing Widget


Download torrent
3.9 GB
seeders:1214
leechers:386
Madtown 2016 1080p WEB-DL DD5 1 H 264 CRO-DIAMOND



To share this torrent use the code below and insert it into comments, status messages, forum posts or your signature.

Torrent: Madtown 2016 1080p WEB-DL DD5 1 H 264 CRO-DIAMOND

Comments

Latest Searches