Love Lies 2016 1080p BRRip x264 AC3 HORiZON ArtSubs torrent download

seeders: 798
leechers: 4
updated:
Added ago by noriegaRJ ***** in Movies
Torrent Downloaded 10 times.
Info Hash: 37489CF228E75E6AF2466ADA94A8CF63C336C974


Torrent Files

Love Lies 2016 1080p BRRip x264 AC3 HORiZON-ArtSubs (Size: 2.5 GB)
  Love Lies 2016 1080p BRRip x264 AC3 HORiZON-ArtSubs 2.5 GB

Torrent Description



Release: Love.Lies.2016.1080p.BRRip.x264.AC3.HORiZON-ArtSubs



IMDB: https://www.imdb.com/title/tt5486170

Subtitle: English

Plot: Two best friends, So-yool and Yeon-hee, dream of becoming the top artists in Seoul together. But their friendship doesn't last long as Yoon-woo, So-yool's first love and songwriter, falls in love with Yeon-hee and her voice. So-yool's feeling of jealousy and inferiority towards Yeon-hee grows by the day, and she eventually makes a drastic decision to bring the two lovers down.


Complete name : Love.Lies.2016.1080p.BRRip.x264.AC3.HORiZON-ArtSubs
Format : Matroska
Format version : Version 4 / Version 2
File size : 2.54 GiB
Duration : 1h 59mn
Overall bit rate : 3 041 Kbps
Encoded date : UTC 2018-05-11 01:16:20
Writing application : mkvmerge v20.0.0 ('I Am The Sun') 64-bit
Writing library : libebml v1.3.5 + libmatroska v1.4.8

Video
ID : 1
Format : AVC
Format/Info : Advanced Video Codec
Format profile : [email protected]
Format settings, CABAC : Yes
Format settings, ReFrames : 4 frames
Codec ID : V_MPEG4/ISO/AVC
Duration : 1h 59mn
Bit rate : 2 600 Kbps
Width : 1 920 pixels
Height : 1 038 pixels
Display aspect ratio : 1.85:1
Frame rate mode : Constant
Frame rate : 23.976 fps
Color space : YUV
Chroma subsampling : 4:2:0
Bit depth : 8 bits
Scan type : Progressive
Bits/(Pixel*Frame) : 0.054
Stream size : 2.12 GiB (83%)
Writing library : x264 core 155 r2893 b00bcaf
Encoding settings : cabac=1 / ref=3 / deblock=1:-1:-1 / analyse=0x3:0x113 / me=hex / subme=7 / psy=1 / psy_rd=1.00:0.15 / mixed_ref=1 / me_range=16 / chroma_me=1 / trellis=1 / 8x8dct=1 / cqm=0 / deadzone=21,11 / fast_pskip=1 / chroma_qp_offset=-3 / threads=3 / lookahead_threads=1 / sliced_threads=0 / nr=0 / decimate=1 / interlaced=0 / bluray_compat=0 / constrained_intra=0 / bframes=3 / b_pyramid=2 / b_adapt=1 / b_bias=0 / direct=1 / weightb=1 / open_gop=0 / weightp=2 / keyint=240 / keyint_min=24 / scenecut=40 / intra_refresh=0 / rc_lookahead=40 / rc=2pass / mbtree=1 / bitrate=2600 / ratetol=1.0 / qcomp=0.60 / qpmin=0 / qpmax=69 / qpstep=4 / cplxblur=20.0 / qblur=0.5 / vbv_maxrate=62500 / vbv_bufsize=78125 / nal_hrd=none / filler=0 / ip_ratio=1.40 / aq=1:1.00
Default : Yes
Forced : No

Audio
ID : 2
Format : AC-3
Format/Info : Audio Coding 3
Mode extension : CM (complete main)
Format settings, Endianness : Big
Codec ID : A_AC3
Duration : 1h 59mn
Bit rate mode : Constant
Bit rate : 448 Kbps
Channel count : 6 channels
Channel positions : Front: L C R, Side: L R, LFE
Sampling rate : 48.0 KHz
Bit depth : 16 bits
Compression mode : Lossy
Stream size : 383 MiB (15%)
Title : Surround
Language : Korean
Default : Yes
Forced : No

Text
ID : 3
Format : UTF-8
Codec ID : S_TEXT/UTF8
Codec ID/Info : UTF-8 Plain Text
Title : English
Language : English
Default : Yes
Forced : No


SCREENSHOTS:






Related Torrents

torrent name size age seed leech
6.3 GB 2 minutes 683 242
46.7 GB 2 minutes 72 186
10.2 MB 4 minutes 156 378
264.0 MB 4 minutes 379 285
26.3 GB 4 minutes 220 472

Sharing Widget


Download torrent
2.5 GB
seeders:1214
leechers:386
Love Lies 2016 1080p BRRip x264 AC3 HORiZON-ArtSubs



To share this torrent use the code below and insert it into comments, status messages, forum posts or your signature.

Torrent: Love Lies 2016 1080p BRRip x264 AC3 HORiZON-ArtSubs

Comments

Latest Searches