Hell or High Water (2016) (1080p BluRay x265 HEVC 10bit AAC 5 1 Joy) [UTR] torrent download

seeders: 482
leechers: 303
updated:
Added ago by UTRCorp ***** in Movies
Torrent Downloaded 10 times.
Info Hash: 4731C52FE61DCF149C01BBB8E26993C53FC050A5


Torrent Files

Hell or High Water (2016) (1080p BluRay x265 HEVC 10bit AAC 5 1 Joy) [UTR] (Size: 1.2 GB)
  Hell or High Water (2016) (1080p BluRay x265 HEVC 10bit AAC 5 1 Joy) [UTR] 1.2 GB

Torrent Description










Media Information

Media Information

Code:

General
Format : Matroska
Format version : Version 4 / Version 2
File size : 1.24 GiB
Duration : 1 h 42 min
Overall bit rate : 1 736 kb/s
Movie name : Hell or High Water 2016 (1080p x265 10bit S74 Joy)[UTR]
Encoded date : UTC 2018-05-28 14:05:53
Writing application : mkvmerge v20.0.0 ('I Am The Sun') 64-bit
Writing library : libebml v1.3.5 + libmatroska v1.4.8
Cover : Yes
Attachments : cover.jpg
Writing frontend : StaxRip v1.7.0.6

Video
ID : 1
Format : HEVC
Format/Info : High Efficiency Video Coding
Format profile : Main [email protected]@Main
Codec ID : V_MPEGH/ISO/HEVC
Duration : 1 h 42 min
Bit rate : 1 501 kb/s
Width : 1 920 pixels
Height : 800 pixels
Display aspect ratio : 2.40:1
Frame rate mode : Constant
Frame rate : 23.976 (24000/1001) FPS
Color space : YUV
Chroma subsampling : 4:2:0
Bit depth : 10 bits
Bits/(Pixel*Frame) : 0.041
Stream size : 1.07 GiB (86%)
Writing library : x265 2.7+2-22c127ff05d5:[Windows][MSVC 1900][64 bit] 10bit
Encoding settings : cpuid=1173503 / frame-threads=4 / numa-pools=16 / wpp / no-pmode / no-pme / no-psnr / ssim / log-level=2 / input-csp=1 / input-res=1920x800 / interlace=0 / total-frames=147148 / level-idc=0 / high-tier=1 / uhd-bd=0 / ref=4 / no-allow-non-conformance / no-repeat-headers / annexb / no-aud / no-hrd / info / hash=0 / no-temporal-layers / open-gop / min-keyint=23 / keyint=250 / gop-lookahead=0 / bframes=4 / b-adapt=2 / b-pyramid / bframe-bias=0 / rc-lookahead=25 / lookahead-slices=4 / scenecut=40 / radl=0 / no-intra-refresh / ctu=64 / min-cu-size=8 / rect / no-amp / max-tu-size=32 / tu-inter-depth=1 / tu-intra-depth=1 / limit-tu=0 / rdoq-level=2 / dynamic-rd=0.00 / ssim-rd / signhide / no-tskip / nr-intra=0 / nr-inter=0 / no-constrained-intra / strong-intra-smoothing / max-merge=3 / limit-refs=3 / limit-modes / me=3 / subme=3 / merange=57 / temporal-mvp / weightp / weightb / no-analyze-src-pics / deblock=0:0 / sao / no-sao-non-deblock / rd=6 / no-early-skip / rskip / no-fast-intra / no-tskip-fast / no-cu-lossless / b-intra / no-splitrd-skip / rdpenalty=0 / psy-rd=1.30 / psy-rdoq=1.05 / no-rd-refine / no-lossless / cbqpoffs=0 / crqpoffs=0 / rc=abr / bitrate=1500 / qcomp=0.60 / qpstep=4 / stats-write=0 / stats-read=2 / cplxblur=20.0 / qblur=0.5 / ipratio=1.40 / pbratio=1.30 / aq-mode=3 / aq-strength=1.00 / cutree / zone-count=0 / no-strict-cbr / qg-size=32 / no-rc-grain / qpmax=69 / qpmin=0 / no-const-vbv / sar=0 / overscan=0 / videoformat=5 / range=0 / colorprim=2 / transfer=2 / colormatrix=2 / chromaloc=0 / display-window=0 / max-cll=0,0 / min-luma=0 / max-luma=1023 / log2-max-poc-lsb=8 / vui-timing-info / vui-hrd-info / slices=1 / no-opt-qp-pps / no-opt-ref-list-length-pps / multi-pass-opt-rps / scenecut-bias=0.05 / no-opt-cu-delta-qp / no-aq-motion / no-hdr / no-hdr-opt / no-dhdr10-opt / analysis-reuse-level=5 / scale-factor=0 / refine-intra=0 / refine-inter=0 / refine-mv=0 / limit-sao / ctu-info=0 / no-lowpass-dct / refine-mv-type=0 / copy-pic=1
Default : Yes
Forced : No

Audio
ID : 2
Format : AAC
Format/Info : Advanced Audio Codec
Format profile : HE-AAC / LC
Codec ID : A_AAC
Duration : 1 h 42 min
Bit rate : 211 kb/s
Channel(s) : 6 channels
Channel positions : Front: L C R, Side: L R, LFE
Sampling rate : 48.0 kHz / 24.0 kHz
Frame rate : 23.438 FPS (1024 spf)
Compression mode : Lossy
Delay relative to video : 31 ms
Stream size : 154 MiB (12%)
Language : English
Default : Yes
Forced : No

Subtitle #1
ID : 3
Format : PGS
Muxing mode : zlib
Codec ID : S_HDMV/PGS
Codec ID/Info : Picture based subtitle format used on BDs/HD-DVDs
Duration : 1 h 34 min
Bit rate : 35.3 kb/s
Count of elements : 2393
Stream size : 23.9 MiB (2%)
Language : English
Default : No
Forced : No

Subtitle #2
ID : 4
Format : UTF-8
Codec ID : S_TEXT/UTF8
Codec ID/Info : UTF-8 Plain Text
Duration : 1 h 34 min
Bit rate : 53 b/s
Count of elements : 1196
Stream size : 37.2 KiB (0%)
Language : English
Default : No
Forced : No

Subtitle #3
ID : 5
Format : VobSub
Muxing mode : zlib
Codec ID : S_VOBSUB
Codec ID/Info : Picture based subtitle format used on DVDs
Duration : 1 h 36 min
Bit rate : 9 183 b/s
Count of elements : 1332
Stream size : 6.32 MiB (0%)
Language : English
Default : No
Forced : No

Subtitle #4
ID : 6
Format : VobSub
Muxing mode : zlib
Codec ID : S_VOBSUB
Codec ID/Info : Picture based subtitle format used on DVDs
Duration : 1 h 40 min
Bit rate : 7 093 b/s
Count of elements : 1125
Stream size : 5.11 MiB (0%)
Language : Spanish
Default : No
Forced : No

Subtitle #5
ID : 7
Format : UTF-8
Codec ID : S_TEXT/UTF8
Codec ID/Info : UTF-8 Plain Text
Duration : 1 h 40 min
Bit rate : 77 b/s
Count of elements : 1131
Stream size : 57.1 KiB (0%)
Language : Arabic
Default : No
Forced : No

Subtitle #6
ID : 8
Format : UTF-8
Codec ID : S_TEXT/UTF8
Codec ID/Info : UTF-8 Plain Text
Duration : 1 h 35 min
Bit rate : 41 b/s
Count of elements : 1150
Stream size : 29.2 KiB (0%)
Language : Chinese
Default : No
Forced : No

Subtitle #7
ID : 9
Format : UTF-8
Codec ID : S_TEXT/UTF8
Codec ID/Info : UTF-8 Plain Text
Duration : 1 h 34 min
Bit rate : 46 b/s
Count of elements : 790
Stream size : 32.4 KiB (0%)
Language : Danish
Default : No
Forced : No

Subtitle #8
ID : 10
Format : UTF-8
Codec ID : S_TEXT/UTF8
Codec ID/Info : UTF-8 Plain Text
Duration : 1 h 38 min
Bit rate : 48 b/s
Count of elements : 955
Stream size : 35.2 KiB (0%)
Language : Dutch
Default : No
Forced : No

Subtitle #9
ID : 11
Format : UTF-8
Codec ID : S_TEXT/UTF8
Codec ID/Info : UTF-8 Plain Text
Duration : 1 h 36 min
Bit rate : 38 b/s
Count of elements : 791
Stream size : 27.4 KiB (0%)
Language : Finnish
Default : No
Forced : No

Subtitle #10
ID : 12
Format : UTF-8
Codec ID : S_TEXT/UTF8
Codec ID/Info : UTF-8 Plain Text
Duration : 1 h 39 min
Bit rate : 43 b/s
Count of elements : 1049
Stream size : 31.5 KiB (0%)
Language : French
Default : No
Forced : No

Subtitle #11
ID : 13
Format : UTF-8
Codec ID : S_TEXT/UTF8
Codec ID/Info : UTF-8 Plain Text
Duration : 1 h 40 min
Bit rate : 42 b/s
Count of elements : 1098
Stream size : 31.0 KiB (0%)
Language : German
Default : No
Forced : No

Subtitle #12
ID : 14
Format : UTF-8
Codec ID : S_TEXT/UTF8
Codec ID/Info : UTF-8 Plain Text
Duration : 1 h 38 min
Bit rate : 109 b/s
Count of elements : 1212
Stream size : 79.3 KiB (0%)
Language : Greek
Default : No
Forced : No

Subtitle #13
ID : 15
Format : UTF-8
Codec ID : S_TEXT/UTF8
Codec ID/Info : UTF-8 Plain Text
Duration : 1 h 39 min
Bit rate : 45 b/s
Count of elements : 1147
Stream size : 33.0 KiB (0%)
Language : Indonesian
Default : No
Forced : No

Subtitle #14
ID : 16
Format : UTF-8
Codec ID : S_TEXT/UTF8
Codec ID/Info : UTF-8 Plain Text
Duration : 1 h 38 min
Bit rate : 51 b/s
Count of elements : 1189
Stream size : 37.3 KiB (0%)
Language : Italian
Default : No
Forced : No

Subtitle #15
ID : 17
Format : UTF-8
Codec ID : S_TEXT/UTF8
Codec ID/Info : UTF-8 Plain Text
Duration : 1 h 37 min
Bit rate : 49 b/s
Count of elements : 1150
Stream size : 35.6 KiB (0%)
Language : Malay
Default : No
Forced : No

Subtitle #16
ID : 18
Format : UTF-8
Codec ID : S_TEXT/UTF8
Codec ID/Info : UTF-8 Plain Text
Duration : 1 h 36 min
Bit rate : 43 b/s
Count of elements : 791
Stream size : 30.4 KiB (0%)
Language : Norwegian
Default : No
Forced : No

Subtitle #17
ID : 19
Format : UTF-8
Codec ID : S_TEXT/UTF8
Codec ID/Info : UTF-8 Plain Text
Duration : 1 h 37 min
Bit rate : 44 b/s
Count of elements : 1010
Stream size : 31.4 KiB (0%)
Language : Portuguese
Default : No
Forced : No

Subtitle #18
ID : 20
Format : UTF-8
Codec ID : S_TEXT/UTF8
Codec ID/Info : UTF-8 Plain Text
Duration : 1 h 36 min
Bit rate : 48 b/s
Count of elements : 1214
Stream size : 34.1 KiB (0%)
Language : Romanian
Default : No
Forced : No

Subtitle #19
ID : 21
Format : UTF-8
Codec ID : S_TEXT/UTF8
Codec ID/Info : UTF-8 Plain Text
Duration : 1 h 36 min
Bit rate : 48 b/s
Count of elements : 792
Stream size : 34.0 KiB (0%)
Language : Swedish
Default : No
Forced : No

Subtitle #20
ID : 22
Format : UTF-8
Codec ID : S_TEXT/UTF8
Codec ID/Info : UTF-8 Plain Text
Duration : 1 h 36 min
Bit rate : 110 b/s
Count of elements : 1069
Stream size : 78.6 KiB (0%)
Language : Thai
Default : No
Forced : No

Subtitle #21
ID : 23
Format : UTF-8
Codec ID : S_TEXT/UTF8
Codec ID/Info : UTF-8 Plain Text
Duration : 1 h 36 min
Bit rate : 58 b/s
Count of elements : 841
Stream size : 41.5 KiB (0%)
Language : Turkish
Default : No
Forced : No

Subtitle #22
ID : 24
Format : UTF-8
Codec ID : S_TEXT/UTF8
Codec ID/Info : UTF-8 Plain Text
Duration : 1 h 34 min
Bit rate : 68 b/s
Count of elements : 1194
Stream size : 47.5 KiB (0%)
Language : Vietnamese
Default : No
Forced : No

Menu
00:00:00.000 : en:Chapter 1
00:09:38.202 : en:Chapter 2
00:13:51.497 : en:Chapter 3
00:22:15.584 : en:Chapter 4
00:28:41.428 : en:Chapter 5
00:31:55.371 : en:Chapter 6
00:40:50.656 : en:Chapter 7
00:46:50.974 : en:Chapter 8
00:55:46.134 : en:Chapter 9
01:02:07.515 : en:Chapter 10
01:09:53.939 : en:Chapter 11
01:14:05.691 : en:Chapter 12
01:20:57.269 : en:Chapter 13
01:29:10.178 : en:Chapter 14
01:35:04.907 : en:Chapter 15
01:38:29.320 : en:Chapter 16



Source Information

Code:

Release:
Hell.or.High.Water.2016.2160p.BluRay.x265.10bit.SDR.DTS-HD.MA.5.1-SWTYBLZ.mkv (35.56 GBs)




Related Torrents

torrent name size age seed leech
10.4 MB 45 seconds 646 231
5.2 GB 45 seconds 762 444
3.4 GB 45 seconds 229 137
Jock Shock wmv
Posted by   Guest  in  Video
825.8 MB 45 seconds 545 278
404.5 MB 45 seconds 454 97

Sharing Widget


Download torrent
1.2 GB
seeders:1214
leechers:386
Hell or High Water (2016) (1080p BluRay x265 HEVC 10bit AAC 5 1 Joy) [UTR]



To share this torrent use the code below and insert it into comments, status messages, forum posts or your signature.

Torrent: Hell or High Water (2016) (1080p BluRay x265 HEVC 10bit AAC 5 1 Joy) [UTR]

Comments

Latest Searches