Every Day 2018 Movies 720p BluRay x264 5 1 with Sample ☻rDX☻ torrent download

seeders: 278
leechers: 391
updated:
Added ago by nehalpuja ***** in Movies
Torrent Downloaded 10 times.
Info Hash: 63DFB9D67959985380B300F4700A9A17993121F4


Torrent Files

Every Day 2018 Movies 720p BluRay x264 5 1 with Sample ☻rDX☻ (Size: 947.9 MB)
  Every Day 2018 Movies 720p BluRay x264 5 1 with Sample ☻rDX☻ 947.9 MB

Torrent Description



Every Day 2018 Movies 720p BluRay x264 5.1 with Sample ☻rDX☻
===============================================================================================

SCREEN SHOTS:



or

http://iphonehosting.eu/2018/5/a/debitcard/1.html

File size : 940 MiB
Duration : 1 h 37 min
Overall bit rate : 1 349 kb/s
Movie name : Every Day 2018 Movies 720p BluRay x264 5.1 ☻rDX☻

Video
ID : 2
Format : AVC
Format/Info : Advanced Video Codec
Format profile : [email protected]
Format settings, CABAC : Yes
Format settings, ReFrames : 4 frames
Codec ID : V_MPEG4/ISO/AVC
Duration : 1 h 37 min
Bit rate : 900 kb/s
Width : 1 280 pixels
Height : 536 pixels
Display aspect ratio : 2.40:1
Frame rate mode : Constant
Frame rate : 23.976 (24000/1001) FPS
Color space : YUV
Chroma subsampling : 4:2:0
Bit depth : 8 bits
Scan type : Progressive
Bits/(Pixel*Frame) : 0.055
Stream size : 609 MiB (65%)
Title : ☻rDX☻
Writing library : x264

Audio
ID : 1
Format : AC-3
Format/Info : Audio Coding 3
Mode extension : CM (complete main)
Format settings, Endianness : Big
Codec ID : A_AC3
Duration : 1 h 37 min
Bit rate mode : Constant
Bit rate : 448 kb/s
Channel(s) : 6 channels
Channel positions : Front: L C R, Side: L R, LFE
Sampling rate : 48.0 kHz
Frame rate : 31.250 FPS (1536 spf)
Bit depth : 16 bits
Compression mode : Lossy
Delay relative to video : -21 ms
Stream size : 312 MiB (33%)
Title : ☻rDX☻
Default : Yes
Forced : No



IMDB : https://www.imdb.com/title/tt7026672



Related Torrents

torrent name size age seed leech
68.0 MB 15 seconds 302 226
265.1 MB 15 seconds 733 189
10.4 MB 5 minutes 738 115
5.2 GB 5 minutes 367 338
3.4 GB 5 minutes 126 32

Sharing Widget


Download torrent
947.9 MB
seeders:1214
leechers:386
Every Day 2018 Movies 720p BluRay x264 5 1 with Sample ☻rDX☻



To share this torrent use the code below and insert it into comments, status messages, forum posts or your signature.

Torrent: Every Day 2018 Movies 720p BluRay x264 5 1 with Sample ☻rDX☻

Comments

Latest Searches