Black Water (2018) 720p H264 italian english Ac3 5 1 MIRCrew torrent download

seeders: 476
leechers: 185
updated:
Added ago by robbyrs ***** in Movies
Torrent Downloaded 10 times.
Info Hash: 10C003C0EA0F8454A4C173A870B54EC21DD17D8A


Torrent Files

Black Water (2018) 720p H264 italian english Ac3-5 1 MIRCrew (Size: 2.0 GB)
  Black Water (2018) 720p H264 italian english Ac3-5 1 MIRCrew 2.0 GB

Torrent Description



Black Water (2018).720p.H264.italian.english.Ac3-5.1.MIRCrew


NO FOUND ONLY ORIGINAL RELEASE



My release is always in double track audio italian and Original audio
for select it use VLC or dvd player home
not use wmp

Black Water (2018)

Quality MIRCrew on HD 720p da 2,0 gb








GENERE: Azione
ANNO: 2018
REGIA: Pasha Patriki
PAESE: USA




Jean-Claude Van Damme, Dolph Lundgren



Un agente della CIA (Jean-Claude Van Damme) è tenuto prigioniero in un luogo segreto a bordo di un sottomarino nucleare. Con l'aiuto di un nuovo alleato (Dolph Lundgren) deve riuscire a scappare e a riabilitare il suo nome prima di scomparire per sempre.



A deep cover operative awakens to find himself imprisoned in a CIA black site on a submarine..









[spoiler]
General
Unique ID : 298460334885426089495923081690768447872 (0xE0895E9F345C8712F55F9D46B6E79980)
Complete name : Black Water (2018).720p.h264.ita.eng-MIRCrew\Black Water (2018).720p.h264.ita.eng-MIRCrew.mkv
Format : Matroska
Format version : Version 2
File size : 2.03 GiB
Duration : 1h 44mn
Overall bit rate : 2 784 Kbps
Movie name : MIRCrew
Encoded date : UTC 2018-06-13 13:23:46
Writing application : Lavf54.63.100
Writing library : Lavf54.63.100

Video
ID : 1
Format : AVC
Format/Info : Advanced Video Codec
Format profile : [email protected]
Format settings, CABAC : Yes
Format settings, ReFrames : 2 frames
Codec ID : V_MPEG4/ISO/AVC
Duration : 1h 44mn
Bit rate : 1 900 Kbps
Width : 1 264 pixels
Height : 528 pixels
Display aspect ratio : 2.40:1
Original display aspect ratio : 2.40:1
Frame rate mode : Variable
Frame rate : 23.976 fps
Color space : YUV
Chroma subsampling : 4:2:0
Bit depth : 8 bits
Scan type : Progressive
Bits/(Pixel*Frame) : 0.119
Stream size : 1.34 GiB (66%)
Writing library : x264 core 130 r2273
Encoding settings : cabac=1 / ref=2 / deblock=1:0:0 / analyse=0x1:0x131 / me=hex / subme=7 / psy=1 / psy_rd=1.00:0.00 / mixed_ref=0 / me_range=16 / chroma_me=1 / trellis=1 / 8x8dct=0 / cqm=0 / deadzone=21,11 / fast_pskip=1 / chroma_qp_offset=-2 / threads=3 / lookahead_threads=1 / sliced_threads=0 / nr=0 / decimate=1 / interlaced=0 / bluray_compat=0 / constrained_intra=0 / bframes=3 / b_pyramid=0 / b_adapt=1 / b_bias=0 / direct=3 / weightb=1 / open_gop=0 / weightp=2 / keyint=230 / keyint_min=23 / scenecut=40 / intra_refresh=0 / rc_lookahead=40 / rc=abr / mbtree=1 / bitrate=1900 / ratetol=1.0 / qcomp=0.60 / qpmin=10 / qpmax=69 / qpstep=4 / vbv_maxrate=24000 / vbv_bufsize=24000 / nal_hrd=none / ip_ratio=1.40 / aq=1:1.00
Language : Italian
Default : Yes
Forced : No
DURATION : 01:44:36.229000000
NUMBER_OF_FRAMES : 150479
NUMBER_OF_BYTES : 7570488245
_STATISTICS_WRITING_APP : mkvmerge v9.5.0 ('Quiet Fire') 64bit
_STATISTICS_WRITING_DATE_UTC : 2018-06-10 12:48:23
_STATISTICS_TAGS : BPS DURATION NUMBER_OF_FRAMES NUMBER_OF_BYTES

Audio #1
ID : 2
Format : AC-3
Format/Info : Audio Coding 3
Mode extension : CM (complete main)
Codec ID : A_AC3
Duration : 1h 44mn
Bit rate mode : Constant
Bit rate : 448 Kbps
Channel(s) : 6 channels
Channel positions : Front: L C R, Side: L R, LFE
Sampling rate : 48.0 KHz
Bit depth : 16 bits
Compression mode : Lossy
Delay relative to video : 1mn 5s
Stream size : 335 MiB (16%)
Title : AC3 ITA
Language : Italian
Default : Yes
Forced : No
DURATION : 01:44:36.352000000
NUMBER_OF_FRAMES : 196136
NUMBER_OF_BYTES : 351475712
_STATISTICS_WRITING_APP : mkvmerge v9.5.0 ('Quiet Fire') 64bit
_STATISTICS_WRITING_DATE_UTC : 2018-06-10 12:48:23
_STATISTICS_TAGS : BPS DURATION NUMBER_OF_FRAMES NUMBER_OF_BYTES

Audio #2
ID : 3
Format : AC-3
Format/Info : Audio Coding 3
Mode extension : CM (complete main)
Codec ID : A_AC3
Duration : 1h 44mn
Bit rate mode : Constant
Bit rate : 448 Kbps
Channel(s) : 6 channels
Channel positions : Front: L C R, Side: L R, LFE
Sampling rate : 48.0 KHz
Bit depth : 16 bits
Compression mode : Lossy
Delay relative to video : 1mn 5s
Stream size : 335 MiB (16%)
Title : AC3 ENG
Language : English
Default : No
Forced : No
DURATION : 01:44:36.320000000
NUMBER_OF_FRAMES : 196135
NUMBER_OF_BYTES : 502105600
_STATISTICS_WRITING_APP : mkvmerge v9.5.0 ('Quiet Fire') 64bit
_STATISTICS_WRITING_DATE_UTC : 2018-06-10 12:48:23
_STATISTICS_TAGS : BPS DURATION NUMBER_OF_FRAMES NUMBER_OF_BYTES

Menu
00:00:00.000 : :00:00:00.000
00:07:05.342 : :00:07:05.342
00:14:28.201 : :00:14:28.201
00:20:13.838 : :00:20:13.838
00:29:27.099 : :00:29:27.099
00:39:02.590 : :00:39:02.590
00:50:56.804 : :00:50:56.804
00:59:52.756 : :00:59:52.756
01:08:53.129 : :01:08:53.129
01:16:19.950 : :01:16:19.950
01:25:27.706 : :01:25:27.706
01:35:23.259 : :01:35:23.259
01:42:10.200 : :01:42:10:200


[/spoiler]





Related Torrents

torrent name size age seed leech
334.3 MB 5 minutes 471 409
177.3 MB 5 minutes 345 484
479.8 MB 5 minutes 223 342
1.3 GB 5 minutes 538 384
84.3 MB 5 minutes 326 393

Sharing Widget


Download torrent
2.0 GB
seeders:1214
leechers:386
Black Water (2018) 720p H264 italian english Ac3-5 1 MIRCrew



To share this torrent use the code below and insert it into comments, status messages, forum posts or your signature.

Torrent: Black Water (2018) 720p H264 italian english Ac3-5 1 MIRCrew

Comments

Latest Searches