Billy Madison 1995 720p Esub BluRay 5 1 Dual Audio English Hindi GOPISAHI torrent download

seeders: 58
leechers: 176
updated:
Added ago by PENDUDESI ***** in Movies
Torrent Downloaded 10 times.
Info Hash: 5B2DFDE7B65FB516A6307299FE2B3C12BE81781C


Torrent Files

Billy Madison 1995 720p Esub BluRay 5 1 Dual Audio English Hindi GOPISAHI (Size: 434.7 MB)
  Billy Madison 1995 720p Esub BluRay 5 1 Dual Audio English Hindi GOPISAHI 434.7 MB

Torrent Description




http://www.gopisahi.pw


Format : Matroska
Format version : Version 4 / Version 2
File size : 435 MiB
Duration : 1 h 29 min
Overall bit rate : 676 kb/s
Movie name : Billy Madison 1995 GOPISAHI

Video
Format : HEVC
Codec ID : V_MPEGH/ISO/HEVC
Duration : 1 h 29 min
Bit rate : 500 kb/s
Width : 1 280 pixels
Height : 694 pixels
Display aspect ratio : 1.85:1
Frame rate mode : Constant
Frame rate : 23.976 (24000/1001) FPS
Color space : YUV
Chroma subsampling : 4:2:0
Bit depth : 8 bits
Bits/(Pixel*Frame) : 0.023
Stream size : 322 MiB (74%)
Title : GOPISAHI
Writing library : x265 2.6:[Windows][GCC 7.2.0][64 bit] 8bit+10bit+12bit

Audio #1
Format : AAC
Duration : 1 h 29 min
Bit rate : 82.6 kb/s
Channel(s) : 6 channels
Channel positions : Front: L C R, Side: L R, LFE
Sampling rate : 44.1 kHz
Frame rate : 43.066 FPS (1024 SPF)
Compression mode : Lossy
Stream size : 53.1 MiB (12%)
Title : GOPISAHI
Language : English

Audio #2
Format : AAC
Duration : 1 h 29 min
Bit rate : 90.4 kb/s
Channel(s) : 6 channels
Channel positions : Front: L C R, Side: L R, LFE
Sampling rate : 44.1 kHz
Frame rate : 43.066 FPS (1024 SPF)
Compression mode : Lossy
Delay relative to video : 2 s 0 ms
Stream size : 58.1 MiB (13%)
Title : GOPISAHI
Language : Hindi

Text
Language : English




Related Torrents

torrent name size age seed leech
128.0 MB 3 minutes 165 366
1.7 GB 3 minutes 93 165
391.9 KB 3 minutes 311 207
107.0 MB 3 minutes 365 408
3.1 GB 3 minutes 129 333

Sharing Widget


Download torrent
434.7 MB
seeders:1214
leechers:386
Billy Madison 1995 720p Esub BluRay 5 1 Dual Audio English Hindi GOPISAHI



To share this torrent use the code below and insert it into comments, status messages, forum posts or your signature.

Torrent: Billy Madison 1995 720p Esub BluRay 5 1 Dual Audio English Hindi GOPISAHI

Comments

Latest Searches