Billions (2016) S03E10 (1080p AMZN WEB DL x265 HEVC 10bit AAC 5 1 Vyndros) torrent download

seeders: 120
leechers: 347
updated:
Added ago by Vyndros ***** in TV
Torrent Downloaded 10 times.
Info Hash: 2847AAD071DA7B6F10396F142C35456F7EC0C6C0


Torrent Files

Billions (2016) S03E10 (1080p AMZN WEB-DL x265 HEVC 10bit AAC 5 1 Vyndros) (Size: 909.3 MB)
  Billions (2016) S03E10 (1080p AMZN WEB-DL x265 HEVC 10bit AAC 5 1 Vyndros) 909.3 MB

Torrent Description








Media Information

Code:

General
Format : Matroska
Format version : Version 4 / Version 2
File size : 909 MiB
Duration : 58 min 32 s
Overall bit rate : 2 172 kb/s
Encoded date : UTC 2018-05-28 17:57:31
Writing application : mkvmerge v20.0.0 ('I Am The Sun') 64-bit
Writing library : libebml v1.3.5 + libmatroska v1.4.8
Writing frontend : StaxRip v1.7.0.6

Video
ID : 1
Format : HEVC
Format/Info : High Efficiency Video Coding
Format profile : Main [email protected]@Main
Codec ID : V_MPEGH/ISO/HEVC
Duration : 58 min 32 s
Bit rate : 1 721 kb/s
Width : 1 920 pixels
Height : 1 080 pixels
Display aspect ratio : 16:9
Frame rate mode : Constant
Frame rate : 23.976 (24000/1001) FPS
Color space : YUV
Chroma subsampling : 4:2:0
Bit depth : 10 bits
Bits/(Pixel*Frame) : 0.035
Stream size : 720 MiB (79%)
Writing library : x265 2.8+1-478bfe2b7673:[Windows][GCC 7.3.0][64 bit] 10bit
Encoding settings : cpuid=1111039 / frame-threads=3 / numa-pools=12 / wpp / no-pmode / no-pme / no-psnr / ssim / log-level=2 / input-csp=1 / input-res=1920x1080 / interlace=0 / total-frames=84204 / level-idc=0 / high-tier=1 / uhd-bd=0 / ref=3 / no-allow-non-conformance / no-repeat-headers / annexb / no-aud / no-hrd / info / hash=0 / no-temporal-layers / open-gop / min-keyint=23 / keyint=250 / gop-lookahead=0 / bframes=8 / b-adapt=2 / b-pyramid / bframe-bias=0 / rc-lookahead=50 / lookahead-slices=6 / scenecut=40 / radl=0 / no-intra-refresh / ctu=64 / min-cu-size=8 / no-rect / no-amp / max-tu-size=32 / tu-inter-depth=1 / tu-intra-depth=1 / limit-tu=0 / rdoq-level=0 / dynamic-rd=0.00 / no-ssim-rd / signhide / no-tskip / nr-intra=0 / nr-inter=0 / no-constrained-intra / no-strong-intra-smoothing / max-merge=3 / limit-refs=3 / no-limit-modes / me=3 / subme=3 / merange=57 / temporal-mvp / weightp / no-weightb / no-analyze-src-pics / deblock=0:0 / sao / no-sao-non-deblock / rd=3 / no-early-skip / no-rskip / no-fast-intra / no-tskip-fast / no-cu-lossless / no-b-intra / no-splitrd-skip / rdpenalty=0 / psy-rd=2.00 / psy-rdoq=0.00 / no-rd-refine / no-lossless / cbqpoffs=0 / crqpoffs=0 / rc=crf / crf=20.0 / qcomp=0.60 / qpstep=4 / stats-write=0 / stats-read=0 / ipratio=1.40 / pbratio=1.30 / aq-mode=3 / aq-strength=0.80 / cutree / zone-count=0 / no-strict-cbr / qg-size=32 / no-rc-grain / qpmax=69 / qpmin=0 / no-const-vbv / sar=0 / overscan=0 / videoformat=5 / range=0 / colorprim=2 / transfer=2 / colormatrix=2 / chromaloc=0 / display-window=0 / max-cll=0,0 / min-luma=0 / max-luma=1023 / log2-max-poc-lsb=8 / vui-timing-info / vui-hrd-info / slices=1 / no-opt-qp-pps / no-opt-ref-list-length-pps / no-multi-pass-opt-rps / scenecut-bias=0.05 / no-opt-cu-delta-qp / no-aq-motion / no-hdr / no-hdr-opt / no-dhdr10-opt / no-idr-recovery-sei / analysis-reuse-level=5 / scale-factor=0 / refine-intra=0 / refine-inter=0 / refine-mv=0 / no-limit-sao / ctu-info=0 / no-lowpass-dct / refine-mv-type=0 / copy-pic=1 / max-ausize-factor=1.0 / no-dynamic-refine / no-single-sei
Default : Yes
Forced : No

Audio
ID : 2
Format : AAC
Format/Info : Advanced Audio Codec
Format profile : LC
Codec ID : A_AAC
Duration : 58 min 32 s
Bit rate : 448 kb/s
Channel(s) : 6 channels
Channel positions : Front: L C R, Side: L R, LFE
Sampling rate : 48.0 kHz
Frame rate : 46.875 FPS (1024 spf)
Compression mode : Lossy
Stream size : 188 MiB (21%)
Language : English
Default : Yes
Forced : Yes

Subtitle #1
ID : 3
Format : UTF-8
Codec ID : S_TEXT/UTF8
Codec ID/Info : UTF-8 Plain Text
Duration : 57 min 48 s
Bit rate : 88 b/s
Count of elements : 1318
Stream size : 37.6 KiB (0%)
Language : English
Default : No
Forced : No

Subtitle #2
ID : 4
Format : UTF-8
Codec ID : S_TEXT/UTF8
Codec ID/Info : UTF-8 Plain Text
Duration : 57 min 48 s
Bit rate : 93 b/s
Count of elements : 1403
Stream size : 39.7 KiB (0%)
Language : English
Default : No
Forced : No

Menu
00:00:00.000 : en:Studio Logo
00:00:04.000 : en:Previously On
00:01:18.000 : en:Title Sequence
00:01:35.000 : en:Randy gives information about Jock to Chuck
00:03:40.000 : en:Chuck discusses about Jock and his brother's properties with Kate and Karl
00:05:39.000 : en:Bobby plays tennis with Maria Sharapova, Grigor asks to return his money
00:07:13.000 : en:Chuck invites Jock to his home for dinner
00:09:00.000 : en:Bobby tries to fix a deal with Raul
00:12:40.000 : en:Franklin denies to help Chuck
00:15:21.000 : en:Chuck asks Wendy to cook for Jock and his wife
00:17:28.000 : en:Allard and Kate ask Chuck to be careful
00:19:12.000 : en:Wendy tries to motivate Ben
00:22:23.000 : en:Chuck goes to meet Cutler
00:24:52.000 : en:Frotty agrees for a deal with Bobby
00:27:57.000 : en:Bobby has a conversation with Bruno
00:30:31.000 : en:Jock and his wife arrive at Chuck's home for dinner
00:33:46.000 : en:Taylor has dinner with Oscar and others
00:34:59.000 : en:Bobby changes his decision
00:38:56.000 : en:Cutlet gives important details to Chuck
00:42:14.000 : en:Bryan meets Dancshazy
00:43:25.000 : en:Ben pitches his idea to Bobby
00:48:57.000 : en:Wendy consoles Taylor
00:50:44.000 : en:Kate feels unhappy that Chuck met her father
00:52:29.000 : en:Bobby spends time with Grigor and his family
00:57:23.000 : en:End Credits



Source Information

Code:

Release:
Amazon WEB-DL




Related Torrents

torrent name size age seed leech
271.3 KB 32 seconds 558 213
2.1 GB 32 seconds 642 218
1.2 GB 32 seconds 484 82
12.0 MB 32 seconds 469 341
26.0 MB 32 seconds 312 177

Sharing Widget


Download torrent
909.3 MB
seeders:1214
leechers:386
Billions (2016) S03E10 (1080p AMZN WEB-DL x265 HEVC 10bit AAC 5 1 Vyndros)



To share this torrent use the code below and insert it into comments, status messages, forum posts or your signature.

Torrent: Billions (2016) S03E10 (1080p AMZN WEB-DL x265 HEVC 10bit AAC 5 1 Vyndros)

Comments

Latest Searches