Badmaash (2018) 720p Hindi Dubbed HDRip x264 AAC by Full4movies torrent download

seeders: 203
leechers: 10
updated:
Added ago by shmasti ***** in Movies
Torrent Downloaded 10 times.
Info Hash: 8ADBC1654D0ABBF5B85C17B5DB24475407984C11


Torrent Files

Badmaash (2018) 720p Hindi Dubbed HDRip x264 AAC by Full4movies (Size: 991.3 MB)
  Badmaash (2018) 720p Hindi Dubbed HDRip x264 AAC by Full4movies 991.3 MB

Torrent Description





General
Complete name : Badmaash (2018) 720p Hindi Dubbed HDRip x264 AAC by Full4movies.mkv
Format : Matroska
Format version : Version 4 / Version 2
File size : 991 MiB
Duration : 1 h 38 min
Overall bit rate : 1 402 kb/s
Encoded date : UTC 2018-06-13 07:46:35
Writing application : mkvmerge v8.1.0 ('Psychedelic Postcard') 32bit
Writing library : libebml v1.3.1 + libmatroska v1.4.2

Video
ID : 1
Format : AVC
Format/Info : Advanced Video Codec
Format profile : [email protected]
Format settings, CABAC : Yes
Format settings, RefFrames : 3 frames
Codec ID : V_MPEG4/ISO/AVC
Duration : 1 h 38 min
Bit rate : 1 274 kb/s
Width : 1 280 pixels
Height : 720 pixels
Display aspect ratio : 16:9
Frame rate mode : Constant
Frame rate : 25.000 FPS
Color space : YUV
Chroma subsampling : 4:2:0
Bit depth : 8 bits
Scan type : Progressive
Bits/(Pixel*Frame) : 0.055
Stream size : 901 MiB (91%)
Default : Yes
Forced : No
Color range : Limited
Color primaries : BT.709
Transfer characteristics : BT.709
Matrix coefficients : BT.709

Audio
ID : 2
Format : AAC
Format/Info : Advanced Audio Codec
Format profile : LC
Codec ID : A_AAC
Duration : 1 h 38 min
Bit rate : 126 kb/s
Channel(s) : 2 channels
Channel positions : Front: L R
Sampling rate : 44.1 kHz
Frame rate : 43.066 FPS (1024 SPF)
Compression mode : Lossy
Stream size : 88.8 MiB (9%)
Language : Hindi
Default : Yes
Forced : No

Screen Shoots



Related Torrents

torrent name size age seed leech
307.0 MB 2 minutes 404 415
1.1 GB 2 minutes 258 416
500.1 MB 4 minutes 578 296
2.6 MB 4 minutes 609 364
1.2 MB 4 minutes 366 219

Sharing Widget


Download torrent
991.3 MB
seeders:1214
leechers:386
Badmaash (2018) 720p Hindi Dubbed HDRip x264 AAC by Full4movies



To share this torrent use the code below and insert it into comments, status messages, forum posts or your signature.

Torrent: Badmaash (2018) 720p Hindi Dubbed HDRip x264 AAC by Full4movies

Comments

Latest Searches