Avengers Infinity War 2018 New HDTC 720p Hindi x264 LLG torrent download

seeders: 159
leechers: 444
updated:
Added ago by LifeLongg ***** in Movies
Torrent Downloaded 10 times.
Info Hash: C3A68995EB34D6DA0AF904B386A0FB749A711B73


Torrent Files

Avengers Infinity War 2018 New HDTC 720p Hindi x264 LLG (Size: 1.0 GB)
  Avengers Infinity War 2018 New HDTC 720p Hindi x264 LLG 1.0 GB

Torrent Description



******************************Thumbnail:**********************



******************************Screenshots:********************

Screenshot 1

Screenshot 2

Screenshot 3

Screenshot 4

Screenshot 5

Screenshot 6

Screenshot 7

Screenshot 8

Screenshot 9

Screenshot 0

**************************************************************

Complete name : Avengers Infinity War 2018.New.HDTC.720p.Hindi.x264.LLG.mp4
Format : MPEG-4
Format profile : Base Media
Codec ID : isom (isom/iso2/avc1/mp41)
File size : 1.02 GiB
Duration : 1 h 53 min
Overall bit rate : 1 284 kb/s
Writing application : Lavf57.56.101

Video
ID : 1
Format : AVC
Format/Info : Advanced Video Codec
Format profile : [email protected]
Format settings : CABAC / 4 Ref Frames
Format settings, CABAC : Yes
Format settings, RefFrames : 4 frames
Codec ID : avc1
Codec ID/Info : Advanced Video Coding
Duration : 1 h 53 min
Bit rate : 1 200 kb/s
Width : 1 280 pixels
Height : 536 pixels
Display aspect ratio : 2.40:1
Frame rate mode : Constant
Frame rate : 25.000 FPS
Color space : YUV
Chroma subsampling : 4:2:0
Bit depth : 8 bits
Scan type : Progressive
Bits/(Pixel*Frame) : 0.070
Stream size : 982 MiB (94%)

Audio
ID : 2
Format : AAC
Format/Info : Advanced Audio Codec
Format profile : LC
Codec ID : mp4a-40-2
Duration : 1 h 53 min
Bit rate mode : Constant
Bit rate : 64.4 kb/s
Channel(s) : 2 channels
Channel positions : Front: L R
Sampling rate : 48.0 kHz
Frame rate : 46.875 FPS (1024 SPF)
Compression mode : Lossy
Stream size : 52.2 MiB (5%)
Language : Hindi
Default : Yes
Alternate group : 1



Related Torrents

torrent name size age seed leech
233.7 MB 1 minute 334 349
PND8GYC279 mp4
Posted by   Guest  in  Video
549.5 MB 1 minute 284 243
454.0 MB 1 minute 636 371
401.6 KB 1 minute 404 312
1.1 GB 1 minute 742 223

Sharing Widget


Download torrent
1.0 GB
seeders:1214
leechers:386
Avengers Infinity War 2018 New HDTC 720p Hindi x264 LLG



To share this torrent use the code below and insert it into comments, status messages, forum posts or your signature.

Torrent: Avengers Infinity War 2018 New HDTC 720p Hindi x264 LLG

Comments

Latest Searches