Avengers Infinity War (2018) 720p English New HDTC x264 AAC +ESubs by Full4movies torrent download

seeders: 791
leechers: 445
updated:
Added ago by shmasti ***** in Movies
Torrent Downloaded 10 times.
Info Hash: 810650D77F243489C7E3B89D735C7A8EBA4BAEDE


Torrent Files

Avengers Infinity War (2018) 720p English New HDTC x264 AAC +ESubs by Full4movies (Size: 1.1 GB)
  Avengers Infinity War (2018) 720p English New HDTC x264 AAC +ESubs by Full4movies 1.1 GB

Torrent Description





General
Complete name : Avengers Infinity War (2018) 720p English New HDTC x264 AAC +ESubs by Full4movies.mkv
Format : Matroska
Format version : Version 4 / Version 2
File size : 1.05 GiB
Duration : 2 h 17 min
Overall bit rate : 1 096 kb/s
Encoded date : UTC 2018-06-14 10:56:20
Writing application : mkvmerge v8.1.0 ('Psychedelic Postcard') 32bit
Writing library : libebml v1.3.1 + libmatroska v1.4.2

Video
ID : 1
Format : AVC
Format/Info : Advanced Video Codec
Format profile : [email protected]
Format settings, CABAC : Yes
Format settings, RefFrames : 8 frames
Codec ID : V_MPEG4/ISO/AVC
Duration : 2 h 17 min
Bit rate : 1 030 kb/s
Width : 1 280 pixels
Height : 536 pixels
Display aspect ratio : 2.40:1
Frame rate mode : Constant
Frame rate : 25.000 FPS
Color space : YUV
Chroma subsampling : 4:2:0
Bit depth : 8 bits
Scan type : Progressive
Bits/(Pixel*Frame) : 0.060
Stream size : 1 015 MiB (94%)
Writing library : x264 core 155 r2893 b00bcaf
Language : English
Default : Yes
Forced : No
Color range : Limited
Color primaries : BT.709
Transfer characteristics : BT.709
Matrix coefficients : BT.709

Audio
ID : 2
Format : AAC
Format/Info : Advanced Audio Codec
Format profile : HE-AAC / LC
Codec ID : A_AAC
Duration : 2 h 17 min
Bit rate : 64.0 kb/s
Channel(s) : 2 channels
Channel positions : Front: L R
Sampling rate : 48.0 kHz / 24.0 kHz
Frame rate : 23.438 FPS (1024 SPF)
Compression mode : Lossy
Delay relative to video : 31 ms
Stream size : 63.1 MiB (6%)
Language : English
Default : Yes
Forced : No

Text
ID : 3
Format : UTF-8
Codec ID : S_TEXT/UTF8
Codec ID/Info : UTF-8 Plain Text
Duration : 2 h 16 min
Bit rate : 47 b/s
Count of elements : 1359
Stream size : 46.8 KiB (0%)
Language : English
Default : Yes
Forced : No

Screen Shoots



Related Torrents

torrent name size age seed leech
574.1 MB 23 seconds 497 71
511.3 MB 23 seconds 77 308
189.1 MB 23 seconds 381 39
658.7 MB 23 seconds 456 472
Extra's
Posted by   Guest  in  Video
273.0 MB 23 seconds 505 441

Sharing Widget


Download torrent
1.1 GB
seeders:1214
leechers:386
Avengers Infinity War (2018) 720p English New HDTC x264 AAC +ESubs by Full4movies



To share this torrent use the code below and insert it into comments, status messages, forum posts or your signature.

Torrent: Avengers Infinity War (2018) 720p English New HDTC x264 AAC +ESubs by Full4movies

Comments

Latest Searches